NFOmation.net - Your Ultimate NFO Upload Resource! Viewing NFO file: Mazinger.Z.Infinity.DVDScreener.720p.txt Mazinger.Z.Infinity.DVDScreener.720p.txt

General
Complete name               : Mazinger.Z.Infinity.DVDScreener.720p
Format                      : AVI
Format/Info                 : Audio Video Interleave
Format profile              : OpenDML
File size                   : 2.25 GiB
Duration                    : 1 h 35 min
Overall bit rate            : 3 393 kb/s
Writing application         : Lavf52.84.0

Video
ID                          : 0
Format                      : MPEG-4 Visual
Format profile              : Simple@L1
Format settings, BVOP       : No
Format settings, QPel       : No
Format settings, GMC        : No warppoints
Format settings, Matrix     : Default (H.263)
Codec ID                    : XVID
Codec ID/Hint               : XviD
Duration                    : 1 h 35 min
Bit rate                    : 3 189 kb/s
Width                       : 1 280 pixels
Height                      : 720 pixels
Display aspect ratio        : 16:9
Frame rate                  : 24.000 FPS
Color space                 : YUV
Chroma subsampling          : 4:2:0
Bit depth                   : 8 bits
Scan type                   : Progressive
Compression mode            : Lossy
Bits/(Pixel*Frame)          : 0.144
Stream size                 : 2.12 GiB (94%)
Writing library             : Lavc52.97.0

Audio
ID                          : 1
Format                      : MPEG Audio
Format version              : Version 1
Format profile              : Layer 3
Mode                        : Joint stereo
Mode extension              : MS Stereo
Codec ID                    : 55
Codec ID/Hint               : MP3
Duration                    : 1 h 35 min
Bit rate mode               : Constant
Bit rate                    : 192 kb/s
Channel(s)                  : 2 channels
Sampling rate               : 48.0 kHz
Compression mode            : Lossy
Stream size                 : 131 MiB (6%)
Alignment                   : Aligned on interleaves
Interleave, duration        : 24  ms (0.58 video frame)
Writing library             : LAME3.98.4


This NFO File was rendered by NFOmation.net

General
Complete name               : Mazinger.Z.Infinity.DVDScreener.720p
Format                      : AVI
Format/Info                 : Audio Video Interleave
Format profile              : OpenDML
File size                   : 2.25 GiB
Duration                    : 1 h 35 min
Overall bit rate            : 3 393 kb/s
Writing application         : Lavf52.84.0

Video
ID                          : 0
Format                      : MPEG-4 Visual
Format profile              : Simple@L1
Format settings, BVOP       : No
Format settings, QPel       : No
Format settings, GMC        : No warppoints
Format settings, Matrix     : Default (H.263)
Codec ID                    : XVID
Codec ID/Hint               : XviD
Duration                    : 1 h 35 min
Bit rate                    : 3 189 kb/s
Width                       : 1 280 pixels
Height                      : 720 pixels
Display aspect ratio        : 16:9
Frame rate                  : 24.000 FPS
Color space                 : YUV
Chroma subsampling          : 4:2:0
Bit depth                   : 8 bits
Scan type                   : Progressive
Compression mode            : Lossy
Bits/(Pixel*Frame)          : 0.144
Stream size                 : 2.12 GiB (94%)
Writing library             : Lavc52.97.0

Audio
ID                          : 1
Format                      : MPEG Audio
Format version              : Version 1
Format profile              : Layer 3
Mode                        : Joint stereo
Mode extension              : MS Stereo
Codec ID                    : 55
Codec ID/Hint               : MP3
Duration                    : 1 h 35 min
Bit rate mode               : Constant
Bit rate                    : 192 kb/s
Channel(s)                  : 2 channels
Sampling rate               : 48.0 kHz
Compression mode            : Lossy
Stream size                 : 131 MiB (6%)
Alignment                   : Aligned on interleaves
Interleave, duration        : 24  ms (0.58 video frame)
Writing library             : LAME3.98.4


This NFO File was rendered by NFOmation.net


Bookmark and Share

<Mascot>
[ Sitemap ]

aa21