NFOmation.net - Your Ultimate NFO Upload Resource! Viewing NFO file: The.Commuter.2018.1080p.HD-RIP.DD5.1.H.264.CRO-DIAMOND.nfo The.Commuter.2018.1080p.HD-RIP.DD5.1.H.264.CRO-DIAMOND

SOURCE:  :)

Code:
General
Unique ID                                : 253176138716969492467229321789333988252 (0xBE77F35F7F8121 >>
222555CBBD06E639C)
Complete name                            : The.Commuter.2018.1080p.HD-RIP.DD5.1.H.264.CRO-DIAMOND.mkv
Format                                   : Matroska
Format version                           : Version 4 / Version 2
File size                                : 4.64 GiB
Duration                                 : 1h 44mn
Overall bit rate                         : 6 362 Kbps
Movie name                               : CRO DIAMOND 1080p
Encoded date                             : UTC 2018-03-28 23:26:36
Writing application                      : mkvmerge v9.6.0 ('Slave To Your Mind') 64bit
Writing library                          : libebml v1.3.4 + libmatroska v1.4.5
DURATION                                 : 01:38:46.250000000
NUMBER_OF_FRAMES                         : 1046
NUMBER_OF_BYTES                          : 41694
_STATISTICS_WRITING_APP                  : mkvmerge v9.6.0 ('Slave To Your Mind') 64bit
_STATISTICS_WRITING_DATE_UTC             : 2018-03-28 23:26:36
_STATISTICS_TAGS                         : BPS DURATION NUMBER_OF_FRAMES NUMBER_OF_BYTES

Video
ID                                       : 1
Format                                   : AVC
Format/Info                              : Advanced Video Codec
Format profile                           : [email protected]
Format settings, CABAC                   : Yes
Format settings, ReFrames                : 4 frames
Codec ID                                 : V_MPEG4/ISO/AVC
Duration                                 : 1h 44mn
Bit rate                                 : 5 851 Kbps
Width                                    : 1 920 pixels
Height                                   : 1 080 pixels
Display aspect ratio                     : 16:9
Frame rate mode                          : Constant
Frame rate                               : 23.976 fps
Color space                              : YUV
Chroma subsampling                       : 4:2:0
Bit depth                                : 8 bits
Scan type                                : Progressive
Bits/(Pixel*Frame)                       : 0.118
Stream size                              : 4.27 GiB (92%)
Title                                    : CRO DIAMOND 1080p
Default                                  : Yes
Forced                                   : No
Color primaries                          : BT.601 NTSC
Transfer characteristics                 : BT.709
Matrix coefficients                      : BT.601

Audio
ID                                       : 2
Format                                   : AC-3
Format/Info                              : Audio Coding 3
Mode extension                           : CM (complete main)
Format settings, Endianness              : Big
Codec ID                                 : A_AC3
Duration                                 : 1h 44mn
Bit rate mode                            : Constant
Bit rate                                 : 384 Kbps
Channel(s)                               : 6 channels
Channel positions                        : Front: L C R, Side: L R, LFE
Sampling rate                            : 48.0 KHz
Bit depth                                : 16 bits
Compression mode                         : Lossy
Stream size                              : 287 MiB (6%)
Language                                 : English
Default                                  : Yes
Forced                                   : No

Text
ID                                       : 3
Format                                   : UTF-8
Codec ID                                 : S_TEXT/UTF8
Codec ID/Info                            : UTF-8 Plain Text
Language                                 : Croatian
Default                                  : Yes
Forced                                   : No

Menu
00:00:00.000                             : en:Chapter 1
00:07:39.042                             : en:Chapter 2
00:16:40.583                             : en:Chapter 3
00:25:24.606                             : en:Chapter 4
00:33:20.582                             : en:Chapter 5
00:42:10.111                             : en:Chapter 6
00:52:17.217                             : en:Chapter 7
00:59:50.170                             : en:Chapter 8
01:09:22.241                             : en:Chapter 9
01:18:26.285                             : en:Chapter 10
01:26:12.751                             : en:Chapter 11
01:34:06.224                             : en:Chapter 12


This NFO File was rendered by NFOmation.net

SOURCE:  :)

Code:
General
Unique ID                                : 253176138716969492467229321789333988252 (0xBE77F35F7F8121 >>
222555CBBD06E639C)
Complete name                            : The.Commuter.2018.1080p.HD-RIP.DD5.1.H.264.CRO-DIAMOND.mkv
Format                                   : Matroska
Format version                           : Version 4 / Version 2
File size                                : 4.64 GiB
Duration                                 : 1h 44mn
Overall bit rate                         : 6 362 Kbps
Movie name                               : CRO DIAMOND 1080p
Encoded date                             : UTC 2018-03-28 23:26:36
Writing application                      : mkvmerge v9.6.0 ('Slave To Your Mind') 64bit
Writing library                          : libebml v1.3.4 + libmatroska v1.4.5
DURATION                                 : 01:38:46.250000000
NUMBER_OF_FRAMES                         : 1046
NUMBER_OF_BYTES                          : 41694
_STATISTICS_WRITING_APP                  : mkvmerge v9.6.0 ('Slave To Your Mind') 64bit
_STATISTICS_WRITING_DATE_UTC             : 2018-03-28 23:26:36
_STATISTICS_TAGS                         : BPS DURATION NUMBER_OF_FRAMES NUMBER_OF_BYTES

Video
ID                                       : 1
Format                                   : AVC
Format/Info                              : Advanced Video Codec
Format profile                           : [email protected]
Format settings, CABAC                   : Yes
Format settings, ReFrames                : 4 frames
Codec ID                                 : V_MPEG4/ISO/AVC
Duration                                 : 1h 44mn
Bit rate                                 : 5 851 Kbps
Width                                    : 1 920 pixels
Height                                   : 1 080 pixels
Display aspect ratio                     : 16:9
Frame rate mode                          : Constant
Frame rate                               : 23.976 fps
Color space                              : YUV
Chroma subsampling                       : 4:2:0
Bit depth                                : 8 bits
Scan type                                : Progressive
Bits/(Pixel*Frame)                       : 0.118
Stream size                              : 4.27 GiB (92%)
Title                                    : CRO DIAMOND 1080p
Default                                  : Yes
Forced                                   : No
Color primaries                          : BT.601 NTSC
Transfer characteristics                 : BT.709
Matrix coefficients                      : BT.601

Audio
ID                                       : 2
Format                                   : AC-3
Format/Info                              : Audio Coding 3
Mode extension                           : CM (complete main)
Format settings, Endianness              : Big
Codec ID                                 : A_AC3
Duration                                 : 1h 44mn
Bit rate mode                            : Constant
Bit rate                                 : 384 Kbps
Channel(s)                               : 6 channels
Channel positions                        : Front: L C R, Side: L R, LFE
Sampling rate                            : 48.0 KHz
Bit depth                                : 16 bits
Compression mode                         : Lossy
Stream size                              : 287 MiB (6%)
Language                                 : English
Default                                  : Yes
Forced                                   : No

Text
ID                                       : 3
Format                                   : UTF-8
Codec ID                                 : S_TEXT/UTF8
Codec ID/Info                            : UTF-8 Plain Text
Language                                 : Croatian
Default                                  : Yes
Forced                                   : No

Menu
00:00:00.000                             : en:Chapter 1
00:07:39.042                             : en:Chapter 2
00:16:40.583                             : en:Chapter 3
00:25:24.606                             : en:Chapter 4
00:33:20.582                             : en:Chapter 5
00:42:10.111                             : en:Chapter 6
00:52:17.217                             : en:Chapter 7
00:59:50.170                             : en:Chapter 8
01:09:22.241                             : en:Chapter 9
01:18:26.285                             : en:Chapter 10
01:26:12.751                             : en:Chapter 11
01:34:06.224                             : en:Chapter 12


This NFO File was rendered by NFOmation.net


Bookmark and Share

<Mascot>
[ Sitemap ]

aa21