NFOmation.net - Your Ultimate NFO Upload Resource! Viewing NFO file: Annihilation.2018.720p.BluRay.x264.DD5.1-HDC.nfo Annihilation.2018.720p.BluRay.x264.DD5.1-HDC

Video
ID                                       : 1
Format                                   : AVC
Format/Info                              : Advanced Video Codec
Format profile                           : High@L4.1
Format settings                          : CABAC / 12 Ref Frames
Format settings, CABAC                   : Yes
Format settings, ReFrames                : 12 frames
Codec ID                                 : V_MPEG4/ISO/AVC
Duration                                 : 1 h 55 min
Bit rate                                 : 5 000 kb/s
Width                                    : 1 280 pixels
Height                                   : 535 pixels
Original height                          : 536 pixels
Display aspect ratio                     : 2.40:1
Frame rate mode                          : Constant
Frame rate                               : 23.976 (24000/1001) FPS
Color space                              : YUV
Chroma subsampling                       : 4:2:0
Bit depth                                : 8 bits
Scan type                                : Progressive
Bits/(Pixel*Frame)                       : 0.305
Stream size                              : 4.02 GiB (89%)
Title                                    : Annihilation.2018.720p.BluRay.x264.DD5.1-HDC
Writing library                          : x264 core 148 r2665kMod a01e339
Encoding settings                        : cabac=1 / ref=12 / deblock=1:-3:-3 / analyse=0x3:0x133 / me=umh >>
/ subme=11 / psy=1 / fade_compensate=0.00 / psy_rd=1.05:0.00 / mixed_ref=1 / me_range=32 / >>
chroma_me=1 / trellis=2 / 8x8dct=1 / cqm=0 / deadzone=21,11 / fast_pskip=0 / chroma_qp_offset=-2 / >>
threads=17 / lookahead_threads=2 / sliced_threads=0 / nr=0 / decimate=0 / interlaced=0 / bluray_compat=0 >>
/ constrained_intra=0 / fgo=0 / bframes=8 / b_pyramid=2 / b_adapt=2 / b_bias=0 / direct=3 / >>
weightb=1 / open_gop=0 / weightp=2 / keyint=240 / keyint_min=24 / scenecut=40 / intra_refresh=0 / rc=2pass >>
/ mbtree=0 / bitrate=5000 / ratetol=1.0 / qcomp=0.70 / qpmin=0 / qpmax=69 / qpstep=4 / cplxblur=20.0 >>
/ qblur=0.5 / ip_ratio=1.20 / pb_ratio=1.20 / aq=3:0.85
Default                                  : Yes
Forced                                   : No

Audio
ID                                       : 2
Format                                   : AC-3
Format/Info                              : Audio Coding 3
Codec ID                                 : A_AC3
Duration                                 : 1 h 55 min
Bit rate mode                            : Constant
Bit rate                                 : 640 kb/s
Channel(s)                               : 6 channels
Channel positions                        : Front: L C R, Side: L R, LFE
Sampling rate                            : 48.0 kHz
Frame rate                               : 31.250 FPS (1536 SPF)
Bit depth                                : 16 bits
Compression mode                         : Lossy
Stream size                              : 526 MiB (11%)
Title                                    : Annihilation.2018.720p.BluRay.x264.DD5.1-HDC
Language                                 : English
Service kind                             : Complete Main
Default                                  : Yes
Forced                                   : No

Text
ID                                       : 3
Format                                   : UTF-8
Codec ID                                 : S_TEXT/UTF8
Codec ID/Info                            : UTF-8 Plain Text
Duration                                 : 1 h 46 min
Bit rate                                 : 33 b/s
Count of elements                        : 1008
Stream size                              : 26.1 KiB (0%)
Language                                 : English
Default                                  : Yes
Forced                                   : No

Menu
00:00:00.000                             : en:00:00:00.000
00:05:09.309                             : en:00:05:09.309
00:11:39.157                             : en:00:11:39.157
00:17:06.692                             : en:00:17:06.692
00:24:08.656                             : en:00:24:08.656
00:28:59.446                             : en:00:28:59.446
00:37:24.242                             : en:00:37:24.242
00:41:59.517                             : en:00:41:59.517
00:49:11.448                             : en:00:49:11.448
00:56:06.405                             : en:00:56:06.405
01:03:22.298                             : en:01:03:22.298
01:10:25.012                             : en:01:10:25.012
01:17:21.929                             : en:01:17:21.929
01:22:20.477                             : en:01:22:20.477
01:30:26.296                             : en:01:30:26.296
01:38:48.589                             : en:01:38:48.589
01:43:58.357                             : en:01:43:58.357
01:48:14.279                             : en:01:48:14.279



This NFO File was rendered by NFOmation.net

Video
ID                                       : 1
Format                                   : AVC
Format/Info                              : Advanced Video Codec
Format profile                           : High@L4.1
Format settings                          : CABAC / 12 Ref Frames
Format settings, CABAC                   : Yes
Format settings, ReFrames                : 12 frames
Codec ID                                 : V_MPEG4/ISO/AVC
Duration                                 : 1 h 55 min
Bit rate                                 : 5 000 kb/s
Width                                    : 1 280 pixels
Height                                   : 535 pixels
Original height                          : 536 pixels
Display aspect ratio                     : 2.40:1
Frame rate mode                          : Constant
Frame rate                               : 23.976 (24000/1001) FPS
Color space                              : YUV
Chroma subsampling                       : 4:2:0
Bit depth                                : 8 bits
Scan type                                : Progressive
Bits/(Pixel*Frame)                       : 0.305
Stream size                              : 4.02 GiB (89%)
Title                                    : Annihilation.2018.720p.BluRay.x264.DD5.1-HDC
Writing library                          : x264 core 148 r2665kMod a01e339
Encoding settings                        : cabac=1 / ref=12 / deblock=1:-3:-3 / analyse=0x3:0x133 / me=umh >>
/ subme=11 / psy=1 / fade_compensate=0.00 / psy_rd=1.05:0.00 / mixed_ref=1 / me_range=32 / >>
chroma_me=1 / trellis=2 / 8x8dct=1 / cqm=0 / deadzone=21,11 / fast_pskip=0 / chroma_qp_offset=-2 / >>
threads=17 / lookahead_threads=2 / sliced_threads=0 / nr=0 / decimate=0 / interlaced=0 / bluray_compat=0 >>
/ constrained_intra=0 / fgo=0 / bframes=8 / b_pyramid=2 / b_adapt=2 / b_bias=0 / direct=3 / >>
weightb=1 / open_gop=0 / weightp=2 / keyint=240 / keyint_min=24 / scenecut=40 / intra_refresh=0 / rc=2pass >>
/ mbtree=0 / bitrate=5000 / ratetol=1.0 / qcomp=0.70 / qpmin=0 / qpmax=69 / qpstep=4 / cplxblur=20.0 >>
/ qblur=0.5 / ip_ratio=1.20 / pb_ratio=1.20 / aq=3:0.85
Default                                  : Yes
Forced                                   : No

Audio
ID                                       : 2
Format                                   : AC-3
Format/Info                              : Audio Coding 3
Codec ID                                 : A_AC3
Duration                                 : 1 h 55 min
Bit rate mode                            : Constant
Bit rate                                 : 640 kb/s
Channel(s)                               : 6 channels
Channel positions                        : Front: L C R, Side: L R, LFE
Sampling rate                            : 48.0 kHz
Frame rate                               : 31.250 FPS (1536 SPF)
Bit depth                                : 16 bits
Compression mode                         : Lossy
Stream size                              : 526 MiB (11%)
Title                                    : Annihilation.2018.720p.BluRay.x264.DD5.1-HDC
Language                                 : English
Service kind                             : Complete Main
Default                                  : Yes
Forced                                   : No

Text
ID                                       : 3
Format                                   : UTF-8
Codec ID                                 : S_TEXT/UTF8
Codec ID/Info                            : UTF-8 Plain Text
Duration                                 : 1 h 46 min
Bit rate                                 : 33 b/s
Count of elements                        : 1008
Stream size                              : 26.1 KiB (0%)
Language                                 : English
Default                                  : Yes
Forced                                   : No

Menu
00:00:00.000                             : en:00:00:00.000
00:05:09.309                             : en:00:05:09.309
00:11:39.157                             : en:00:11:39.157
00:17:06.692                             : en:00:17:06.692
00:24:08.656                             : en:00:24:08.656
00:28:59.446                             : en:00:28:59.446
00:37:24.242                             : en:00:37:24.242
00:41:59.517                             : en:00:41:59.517
00:49:11.448                             : en:00:49:11.448
00:56:06.405                             : en:00:56:06.405
01:03:22.298                             : en:01:03:22.298
01:10:25.012                             : en:01:10:25.012
01:17:21.929                             : en:01:17:21.929
01:22:20.477                             : en:01:22:20.477
01:30:26.296                             : en:01:30:26.296
01:38:48.589                             : en:01:38:48.589
01:43:58.357                             : en:01:43:58.357
01:48:14.279                             : en:01:48:14.279



This NFO File was rendered by NFOmation.net


Bookmark and Share

<Mascot>
[ Sitemap ]

aa21