NFOmation.net - Your Ultimate NFO Upload Resource! Viewing NFO file: Zoo.2017.720p.WEB-DL.x264.AAC-eSc.nfo Zoo.2017.720p.WEB-DL.x264.AAC-eSc

General
Format                                   : MPEG-4
Format profile                           : Base Media / Version 2
Codec ID                                 : mp42 (isom/iso2/avc1/mp41)
File size                                : 855 MiB
Duration                                 : 1 h 37 min
Overall bit rate mode                    : Variable
Overall bit rate                         : 1 232 kb/s
Encoded date                             : UTC 2018-06-08 18:36:45
Tagged date                              : UTC 2018-06-08 20:57:18

Video
ID                                       : 1
Format                                   : AVC
Format/Info                              : Advanced Video Codec
Format profile                           : High@L4.1
Format settings                          : CABAC / 4 Ref Frames
Format settings, CABAC                   : Yes
Format settings, RefFrames               : 4 frames
Codec ID                                 : avc1
Codec ID/Info                            : Advanced Video Coding
Duration                                 : 1 h 37 min
Bit rate                                 : 1 100 kb/s
Width                                    : 1 280 pixels
Height                                   : 544 pixels
Display aspect ratio                     : 2.35:1
Original display aspect ratio            : 2.35:1
Frame rate mode                          : Variable
Frame rate                               : 24.000 FPS
Minimum frame rate                       : 12.048 FPS
Maximum frame rate                       : 24.390 FPS
Color space                              : YUV
Chroma subsampling                       : 4:2:0
Bit depth                                : 8 bits
Scan type                                : Progressive
Bits/(Pixel*Frame)                       : 0.066
Stream size                              : 763 MiB (89%)
Writing library                          : x264 core 142 r2479 dd79a61
Encoding settings                        : cabac=1 / ref=3 / deblock=1:-1:-1 / analyse=0x3:0x113 / me=hex >>
/ subme=7 / psy=1 / psy_rd=1.00:0.15 / mixed_ref=1 / me_range=16 / chroma_me=1 / trellis=1 / 8x8dct=1 >>
/ cqm=0 / deadzone=21,11 / fast_pskip=1 / chroma_qp_offset=-3 / threads=12 / lookahead_threads=2 / >>
sliced_threads=0 / nr=0 / decimate=1 / interlaced=0 / bluray_compat=0 / constrained_intra=0 / >>
bframes=3 / b_pyramid=2 / b_adapt=1 / b_bias=0 / direct=1 / weightb=1 / open_gop=0 / weightp=2 / >>
keyint=240 / keyint_min=24 / scenecut=40 / intra_refresh=0 / rc_lookahead=40 / rc=2pass / mbtree=1 / >>
bitrate=1100 / ratetol=1.0 / qcomp=0.60 / qpmin=0 / qpmax=69 / qpstep=4 / cplxblur=20.0 / qblur=0.5 / >>
vbv_maxrate=62500 / vbv_bufsize=78125 / nal_hrd=none / filler=0 / ip_ratio=1.40 / aq=1:1.00
Language                                 : English
Encoded date                             : UTC 2018-06-08 18:36:45
Tagged date                              : UTC 2018-06-08 18:36:45
Color range                              : Limited
Color primaries                          : BT.709
Transfer characteristics                 : BT.709
Matrix coefficients                      : BT.709
Menus                                    : 4

Audio
ID                                       : 2
Format                                   : AAC
Format/Info                              : Advanced Audio Codec
Format profile                           : LC
Codec ID                                 : mp4a-40-2
Duration                                 : 1 h 37 min
Bit rate mode                            : Variable
Bit rate                                 : 126 kb/s
Channel(s)                               : 2 channels
Channel positions                        : Front: L R
Sampling rate                            : 48.0 kHz
Frame rate                               : 46.875 FPS (1024 SPF)
Compression mode                         : Lossy
Stream size                              : 87.6 MiB (10%)
Title                                    : Stereo / Stereo
Language                                 : English
Default                                  : Yes
Alternate group                          : 1
Encoded date                             : UTC 2018-06-08 18:36:45
Tagged date                              : UTC 2018-06-08 18:36:45

Menu
ID                                       : 4
Codec ID                                 : text
Duration                                 : 1 h 37 min
Encoded date                             : UTC 2018-06-08 20:57:18
Tagged date                              : UTC 2018-06-08 20:57:18
Menu For                                 : 1
00:00:00.000                             : Chapter 1
00:09:55.875                             : Chapter 2
00:20:57.583                             : Chapter 3
00:30:43.167                             : Chapter 4
00:40:49.708                             : Chapter 5
00:49:54.333                             : Chapter 6
01:01:10.958                             : Chapter 7
01:10:45.500                             : Chapter 8
01:21:26.250                             : Chapter 9
01:32:46.917                             : Chapter 10
Bit rate mode                            : VBR


This NFO File was rendered by NFOmation.net

General
Format                                   : MPEG-4
Format profile                           : Base Media / Version 2
Codec ID                                 : mp42 (isom/iso2/avc1/mp41)
File size                                : 855 MiB
Duration                                 : 1 h 37 min
Overall bit rate mode                    : Variable
Overall bit rate                         : 1 232 kb/s
Encoded date                             : UTC 2018-06-08 18:36:45
Tagged date                              : UTC 2018-06-08 20:57:18

Video
ID                                       : 1
Format                                   : AVC
Format/Info                              : Advanced Video Codec
Format profile                           : High@L4.1
Format settings                          : CABAC / 4 Ref Frames
Format settings, CABAC                   : Yes
Format settings, RefFrames               : 4 frames
Codec ID                                 : avc1
Codec ID/Info                            : Advanced Video Coding
Duration                                 : 1 h 37 min
Bit rate                                 : 1 100 kb/s
Width                                    : 1 280 pixels
Height                                   : 544 pixels
Display aspect ratio                     : 2.35:1
Original display aspect ratio            : 2.35:1
Frame rate mode                          : Variable
Frame rate                               : 24.000 FPS
Minimum frame rate                       : 12.048 FPS
Maximum frame rate                       : 24.390 FPS
Color space                              : YUV
Chroma subsampling                       : 4:2:0
Bit depth                                : 8 bits
Scan type                                : Progressive
Bits/(Pixel*Frame)                       : 0.066
Stream size                              : 763 MiB (89%)
Writing library                          : x264 core 142 r2479 dd79a61
Encoding settings                        : cabac=1 / ref=3 / deblock=1:-1:-1 / analyse=0x3:0x113 / me=hex >>
/ subme=7 / psy=1 / psy_rd=1.00:0.15 / mixed_ref=1 / me_range=16 / chroma_me=1 / trellis=1 / 8x8dct=1 >>
/ cqm=0 / deadzone=21,11 / fast_pskip=1 / chroma_qp_offset=-3 / threads=12 / lookahead_threads=2 / >>
sliced_threads=0 / nr=0 / decimate=1 / interlaced=0 / bluray_compat=0 / constrained_intra=0 / >>
bframes=3 / b_pyramid=2 / b_adapt=1 / b_bias=0 / direct=1 / weightb=1 / open_gop=0 / weightp=2 / >>
keyint=240 / keyint_min=24 / scenecut=40 / intra_refresh=0 / rc_lookahead=40 / rc=2pass / mbtree=1 / >>
bitrate=1100 / ratetol=1.0 / qcomp=0.60 / qpmin=0 / qpmax=69 / qpstep=4 / cplxblur=20.0 / qblur=0.5 / >>
vbv_maxrate=62500 / vbv_bufsize=78125 / nal_hrd=none / filler=0 / ip_ratio=1.40 / aq=1:1.00
Language                                 : English
Encoded date                             : UTC 2018-06-08 18:36:45
Tagged date                              : UTC 2018-06-08 18:36:45
Color range                              : Limited
Color primaries                          : BT.709
Transfer characteristics                 : BT.709
Matrix coefficients                      : BT.709
Menus                                    : 4

Audio
ID                                       : 2
Format                                   : AAC
Format/Info                              : Advanced Audio Codec
Format profile                           : LC
Codec ID                                 : mp4a-40-2
Duration                                 : 1 h 37 min
Bit rate mode                            : Variable
Bit rate                                 : 126 kb/s
Channel(s)                               : 2 channels
Channel positions                        : Front: L R
Sampling rate                            : 48.0 kHz
Frame rate                               : 46.875 FPS (1024 SPF)
Compression mode                         : Lossy
Stream size                              : 87.6 MiB (10%)
Title                                    : Stereo / Stereo
Language                                 : English
Default                                  : Yes
Alternate group                          : 1
Encoded date                             : UTC 2018-06-08 18:36:45
Tagged date                              : UTC 2018-06-08 18:36:45

Menu
ID                                       : 4
Codec ID                                 : text
Duration                                 : 1 h 37 min
Encoded date                             : UTC 2018-06-08 20:57:18
Tagged date                              : UTC 2018-06-08 20:57:18
Menu For                                 : 1
00:00:00.000                             : Chapter 1
00:09:55.875                             : Chapter 2
00:20:57.583                             : Chapter 3
00:30:43.167                             : Chapter 4
00:40:49.708                             : Chapter 5
00:49:54.333                             : Chapter 6
01:01:10.958                             : Chapter 7
01:10:45.500                             : Chapter 8
01:21:26.250                             : Chapter 9
01:32:46.917                             : Chapter 10
Bit rate mode                            : VBR


This NFO File was rendered by NFOmation.net


Bookmark and Share

<Mascot>
[ Sitemap ]

aa21