NFOmation.net - Your Ultimate NFO Upload Resource! Viewing NFO file: Oceans_8_2018_720p_HD-TS_X264-CPG.txt Oceans_8_2018_720p_HD-TS_X264-CPG.txt

General

Format                         : Matroska
Format version                 : Version 4 / Version 2
File size                      : 2.32 GiB
Duration                       : 1h 43mn
Overall bit rate mode          : Variable
Overall bit rate               : 3 197 Kbps
Encoded date                   : UTC 2018-06-13 07:23:01
Writing application            : mkvmerge v9.5.0 ('Quiet Fire') 64bit
Writing library                : libebml v1.3.4 + libmatroska v1.4.5
DURATION                       : 01:43:42.576000000
NUMBER_OF_FRAMES               : 238208
NUMBER_OF_BYTES                : 149341832
_STATISTICS_WRITING_APP        : mkvmerge v9.5.0 ('Quiet Fire') 64bit
_STATISTICS_WRITING_DATE_UTC   : 2018-06-13 07:23:01
_STATISTICS_TAGS               : BPS DURATION NUMBER_OF_FRAMES NUMBER_OF_BYTES

Video
ID                             : 1
Format                         : AVC
Format/Info                    : Advanced Video Codec
Format profile                 : High@L4.2
Format settings, CABAC         : Yes
Format settings, ReFrames      : 6 frames
Codec ID                       : V_MPEG4/ISO/AVC
Duration                       : 1h 43mn
Bit rate mode                  : Variable
Bit rate                       : 3 000 Kbps
Maximum bit rate               : 62.5 Mbps
Width                          : 1 280 pixels
Height                         : 536 pixels
Display aspect ratio           : 2.40:1
Frame rate mode                : Constant
Frame rate                     : 30.000 fps
Color space                    : YUV
Chroma subsampling             : 4:2:0
Bit depth                      : 8 bits
Scan type                      : Progressive
Bits/(Pixel*Frame)             : 0.146
Stream size                    : 2.13 GiB (92%)
Writing library                : x264 core 148 r2638 7599210
Encoding settings              : cabac=1 / ref=7 / deblock=1:-1:-1 / analyse=0x3:0x133 / me=umh / subme=9 >>
/ psy=1 / psy_rd=1.00:0.15 / mixed_ref=1 / me_range=18 / chroma_me=1 / trellis=2 / 8x8dct=1 / cqm=0 / >>
deadzone=21,11 / fast_pskip=0 / chroma_qp_offset=-3 / threads=16 / lookahead_threads=1 / sliced_threads=0 >>
/ slices=4 / nr=0 / decimate=1 / interlaced=0 / bluray_compat=0 / constrained_intra=0 / bframes=3 / >>
b_pyramid=1 / b_adapt=2 / b_bias=0 / direct=3 / weightb=1 / open_gop=0 / weightp=0 / keyint=300 / >>
keyint_min=30 / scenecut=40 / intra_refresh=0 / rc_lookahead=40 / rc=abr / mbtree=1 / bitrate=3000 / >>
ratetol=1.0 / qcomp=0.60 / qpmin=10 / qpmax=51 / qpstep=4 / vbv_maxrate=62500 / vbv_bufsize=78125 / >>
nal_hrd=vbr / filler=0 / ip_ratio=1.40 / aq=1:1.00
Default                        : Yes
Forced                         : No
Color range                    : Full
Color primaries                : BT.709
Transfer characteristics       : BT.709
Matrix coefficients            : BT.709

Audio
ID                             : 2
Format                         : MPEG Audio
Format version                 : Version 1
Format profile                 : Layer 3
Codec ID                       : A_MPEG/L3
Codec ID/Hint                  : MP3
Duration                       : 1h 43mn
Bit rate mode                  : Constant
Bit rate                       : 192 Kbps
Channel(s)                     : 2 channels
Sampling rate                  : 44.1 KHz
Compression mode               : Lossy
Delay relative to video        : 7ms
Stream size                    : 142 MiB (6%)
Writing library                : LAME3.99.5
Default                        : Yes
Forced                         : No



This NFO File was rendered by NFOmation.net

General

Format                         : Matroska
Format version                 : Version 4 / Version 2
File size                      : 2.32 GiB
Duration                       : 1h 43mn
Overall bit rate mode          : Variable
Overall bit rate               : 3 197 Kbps
Encoded date                   : UTC 2018-06-13 07:23:01
Writing application            : mkvmerge v9.5.0 ('Quiet Fire') 64bit
Writing library                : libebml v1.3.4 + libmatroska v1.4.5
DURATION                       : 01:43:42.576000000
NUMBER_OF_FRAMES               : 238208
NUMBER_OF_BYTES                : 149341832
_STATISTICS_WRITING_APP        : mkvmerge v9.5.0 ('Quiet Fire') 64bit
_STATISTICS_WRITING_DATE_UTC   : 2018-06-13 07:23:01
_STATISTICS_TAGS               : BPS DURATION NUMBER_OF_FRAMES NUMBER_OF_BYTES

Video
ID                             : 1
Format                         : AVC
Format/Info                    : Advanced Video Codec
Format profile                 : High@L4.2
Format settings, CABAC         : Yes
Format settings, ReFrames      : 6 frames
Codec ID                       : V_MPEG4/ISO/AVC
Duration                       : 1h 43mn
Bit rate mode                  : Variable
Bit rate                       : 3 000 Kbps
Maximum bit rate               : 62.5 Mbps
Width                          : 1 280 pixels
Height                         : 536 pixels
Display aspect ratio           : 2.40:1
Frame rate mode                : Constant
Frame rate                     : 30.000 fps
Color space                    : YUV
Chroma subsampling             : 4:2:0
Bit depth                      : 8 bits
Scan type                      : Progressive
Bits/(Pixel*Frame)             : 0.146
Stream size                    : 2.13 GiB (92%)
Writing library                : x264 core 148 r2638 7599210
Encoding settings              : cabac=1 / ref=7 / deblock=1:-1:-1 / analyse=0x3:0x133 / me=umh / subme=9 >>
/ psy=1 / psy_rd=1.00:0.15 / mixed_ref=1 / me_range=18 / chroma_me=1 / trellis=2 / 8x8dct=1 / cqm=0 / >>
deadzone=21,11 / fast_pskip=0 / chroma_qp_offset=-3 / threads=16 / lookahead_threads=1 / sliced_threads=0 >>
/ slices=4 / nr=0 / decimate=1 / interlaced=0 / bluray_compat=0 / constrained_intra=0 / bframes=3 / >>
b_pyramid=1 / b_adapt=2 / b_bias=0 / direct=3 / weightb=1 / open_gop=0 / weightp=0 / keyint=300 / >>
keyint_min=30 / scenecut=40 / intra_refresh=0 / rc_lookahead=40 / rc=abr / mbtree=1 / bitrate=3000 / >>
ratetol=1.0 / qcomp=0.60 / qpmin=10 / qpmax=51 / qpstep=4 / vbv_maxrate=62500 / vbv_bufsize=78125 / >>
nal_hrd=vbr / filler=0 / ip_ratio=1.40 / aq=1:1.00
Default                        : Yes
Forced                         : No
Color range                    : Full
Color primaries                : BT.709
Transfer characteristics       : BT.709
Matrix coefficients            : BT.709

Audio
ID                             : 2
Format                         : MPEG Audio
Format version                 : Version 1
Format profile                 : Layer 3
Codec ID                       : A_MPEG/L3
Codec ID/Hint                  : MP3
Duration                       : 1h 43mn
Bit rate mode                  : Constant
Bit rate                       : 192 Kbps
Channel(s)                     : 2 channels
Sampling rate                  : 44.1 KHz
Compression mode               : Lossy
Delay relative to video        : 7ms
Stream size                    : 142 MiB (6%)
Writing library                : LAME3.99.5
Default                        : Yes
Forced                         : No



This NFO File was rendered by NFOmation.net


Bookmark and Share

<Mascot>
[ Sitemap ]

aa21