NFOmation.net - Your Ultimate NFO Upload Resource! Viewing NFO file: Avengers.Infinity.War.2018.HDTC.x264-DiRG.nfo Avengers.Infinity.War.2018.HDTC.x264-DiRG

▄▄▄▄▄▄▄▄▄▄▄▄▄▄▄▄▄▄▄▄▄▄▄▄▄▄▄▄▄▄▄▄▄▄▄▄▄▄▄▄▄▄▄▄▄▄▄▄▄▄▄▄▄▄▄▄▄▄▄▄▄▄▄▄▄▄▄▄▄▄▄▄▄▄▄▄▄▄▄▄
■█▄▀▄▀▄▀▄▀▄▀▄▀▄▀▄▀▄▀▄▀▄▀▄▀▄▀▄▀▄▀▄▀▄▀▄▀◘◘▀▄▀▄▀▄▀▄▀▄▀▄▀▄▀▄▀▄▀▄▀▄▀▄▀▄▀▄▀▄▀▄▀▄▀▄▀▄█■
■▌▌                                                                          ▐▐■
■▌▌  DDDDDDDDDDDDD          iiii  RRRRRRRRRRRRRRRRR           GGGGGGGGGGGGG  ▐▐■
■▌▌  D▓▓▓▓▓▓▓▓▓▓▓▓DDD      i▓▓▓▓i R▓▓▓▓▓▓▓▓▓▓▓▓▓▓▓▓R       GGG▓▓▓▓▓▓▓▓▓▓▓▓G  ▐▐■
■▌▌  D▓▓▓▓▓▓▓▓▓▓▓▓▓▓▓DD     iiii  R▓▓▓▓▓▓RRRRRR▓▓▓▓▓R    GG▓▓▓▓▓▓▓▓▓▓▓▓▓▓▓G  ▐▐■
■▌▌  DDD▓▓▓▓▓DDDDD▓▓▓▓▓D          RR▓▓▓▓▓R     R▓▓▓▓▓R  G▓▓▓▓▓GGGGGGGG▓▓▓▓G  ▐▐■
■▌▌    D▓▓▓▓▓D    D▓▓▓▓▓D iiiiiii   R▓▓▓▓R     R▓▓▓▓▓R G▓▓▓▓▓G       GGGGGG  ▐▐■
■▌▌    D▓▓▓▓▓D     D▓▓▓▓▓Di▓▓▓▓▓i   R▓▓▓▓R     R▓▓▓▓▓RG▓▓▓▓▓G                ▐▐■
■▌▌    D▓▓▓▓▓D     D▓▓▓▓▓D i▓▓▓▓i   R▓▓▓▓RRRRRR▓▓▓▓▓R G▓▓▓▓▓G                ▐▐■
■▌▌    D▓▓▓▓▓D     D▓▓▓▓▓D i▓▓▓▓i   R▓▓▓▓▓▓▓▓▓▓▓▓▓RR  G▓▓▓▓▓G    GGGGGGGGGG  ▐▐■
■▌▌    D▓▓▓▓▓D     D▓▓▓▓▓D i▓▓▓▓i   R▓▓▓▓RRRRRR▓▓▓▓▓R G▓▓▓▓▓G    G▓▓▓▓▓▓▓▓G  ▐▐■
■▌▌    D▓▓▓▓▓D     D▓▓▓▓▓D i▓▓▓▓i   R▓▓▓▓R     R▓▓▓▓▓RG▓▓▓▓▓G    GGGGG▓▓▓▓G  ▐▐■
■▌▌    D▓▓▓▓▓D     D▓▓▓▓▓D i▓▓▓▓i   R▓▓▓▓R     R▓▓▓▓▓RG▓▓▓▓▓G        G▓▓▓▓G  ▐▐■
■▌▌    D▓▓▓▓▓D    D▓▓▓▓▓D  i▓▓▓▓i   R▓▓▓▓R     R▓▓▓▓▓R G▓▓▓▓▓G       G▓▓▓▓G  ▐▐■
■▌▌  DDD▓▓▓▓▓DDDDD▓▓▓▓▓D  i▓▓▓▓▓▓iRR▓▓▓▓▓R     R▓▓▓▓▓R  G▓▓▓▓▓GGGGGGGG▓▓▓▓G  ▐▐■
■▌▌  D▓▓▓▓▓▓▓▓▓▓▓▓▓▓▓DD   i▓▓▓▓▓▓iR▓▓▓▓▓▓R     R▓▓▓▓▓R   GG▓▓▓▓▓▓▓▓▓▓▓▓▓▓▓G  ▐▐■
■▌▌  D▓▓▓▓▓▓▓▓▓▓▓▓DDD     i▓▓▓▓▓▓iR▓▓▓▓▓▓R     R▓▓▓▓▓R     GGG▓▓▓▓▓▓GGG▓▓▓G  ▐▐■
■▌▌  DDDDDDDDDDDDD        iiiiiiiiRRRRRRRR     RRRRRRR        GGGGGG   GGGG  ▐▐■
■▌▌                                                                          ▐▐■
■▌▌                          DISLIKED RELEASE GROUP                          ▐▐■
■▌▌                     NOBODY EVEN WANTS TO RETAG US :(                     ▐▐■
■▌▌                                                                          ▐▐■
■█▀▄▀▄▀▄▀▄▀▄▀▄▀▄▀▄▀▄▀▄▀▄▀▄▀▄▀▄▀▄▀▄▀▄▀▄◘◘▄▀▄▀▄▀▄▀▄▀▄▀▄▀▄▀▄▀▄▀▄▀▄▀▄▀▄▀▄▀▄▀▄▀▄▀▄▀█■
■█▀▀▀▀▀▀▀▀▀▀▀▀▀▀▀▀▀▀▀▀▀▀▀▀▀▀▀▀▀▀▀▀▀▀▀▀▀▀▀▀▀▀▀▀▀▀▀▀▀▀▀▀▀▀▀▀▀▀▀▀▀▀▀▀▀▀▀▀▀▀▀▀▀▀▀▀█■
■█                 Avengers.Infinity.War.2018.HDTC.x264-DiRG                  █■
■█▄▄▄▄▄▄▄▄▄▄▄▄▄▄▄▄▄▄▄▄▄▄▄▄▄▄▄▄▄▄▄▄▄▄▄▄▄▄▄▄▄▄▄▄▄▄▄▄▄▄▄▄▄▄▄▄▄▄▄▄▄▄▄▄▄▄▄▄▄▄▄▄▄▄▄▄█■
■█▀▀▀▀▀▀▀▀▀▀▀▀▀▀▀▀▀▀▀▀▀▀▀▀▀▀▀▀▀▀▀RELEASE INFO▀▀▀▀▀▀▀▀▀▀▀▀▀▀▀▀▀▀▀▀▀▀▀▀▀▀▀▀▀▀▀▀▀█■
■▌                                                                            ▐■
■▌ TITLE : Avengers: Infinity War (2018)                                      ▐■
■▌ IMDB : https://www.imdb.com/title/tt4154756                                ▐■
■▌ PLOT : The Avengers and their allies must be willing to sacrifice all in   ▐■
■▌        an attempt to defeat the powerful Thanos before his blitz of        ▐■
■▌        devastation and ruin puts an end to the universe.                   ▐■
■▌ STARS : Robert Downey Jr., Chris Hemsworth, Mark Ruffalo                   ▐■
■▌ GENRE : Action, Adventure, Fantasy                                         ▐■
■▌ FILE FORMAT : MP4                                                          ▐■
■▌ VIDEO FORMAT : H264 AVC Profile High@L3                                    ▐■
■▌ AUDIO FORMAT : AAC 96kbps                                                  ▐■
■▌ LANGUAGE : English                                                         ▐■
■▌ SUBTITLES : -                                                              ▐■
■▌ RESOLUTION : 720 x 312                                                     ▐■
■▌ DURATION : 2h17                                                            ▐■
■▌ SIZE : 900 MB                                                              ▐■
■▌ SOURCE : 720p HDTC Cr@zyTribal                                             ▐■
■▌                                                                            ▐■
■▌                                                                            ▐■
■▌                              !!! NOTE !!!                                  ▐■
■▌    Cr@zyTribal HDTC source was used for both audio and video.              ▐■
■▌     - Corrected aspect ratio.                                              ▐■
■▌     - Color & level corrected. Removed the greenish tint and gave          ▐■
■▌       the picture a bit more pop.                                          ▐■
■▌                                                                            ▐■
■▌                                                                            ▐■
■▌              Give a hoot & don't just leech this loot...                   ▐■
■▌                                                                            ▐■
■▌                                                                            ▐■
■▌  SAMPLE INCLUDED                                                           ▐■
■▌                                                                            ▐■
■▌     ... And don't y'all forget it now ... DiRG specializes in turd ...     ▐■
■▌         ... We go knee deep in turd just for your convenience! ...         ▐■
■▌                                                                            ▐■
■▌               Cammers or suppliers of goodies can contact us @             ▐■
■▌                               dirg@tuta.io                                 ▐■
■▌                                                                            ▐■
■█▄▄▄▄▄▄▄▄▄▄▄▄▄▄▄▄▄▄▄▄▄▄▄▄▄▄▄▄▄▄▄▄▄▄▄▄▄▄▄▄▄▄▄▄▄▄▄▄▄▄▄▄▄▄▄▄▄▄▄▄▄▄▄▄▄▄▄▄▄▄▄▄▄▄▄▄█■
■█▀▀▀▀▀▀▀▀▀▀▀▀▀▀▀▀▀▀▀▀▀▀▀▀▀▀▀▀▀▀▀SCREENS SHOT▀▀▀▀▀▀▀▀▀▀▀▀▀▀▀▀▀▀▀▀▀▀▀▀▀▀▀▀▀▀▀▀▀█■
■▌                  https://extraimage.net/image/NjMW                         ▐■
■▌                  https://extraimage.net/image/NjMf                         ▐■
■█▄▄▄▄▄▄▄▄▄▄▄▄▄▄▄▄▄▄▄▄▄▄▄▄▄▄▄▄▄▄▄▄▄▄▄▄▄▄▄▄▄▄▄▄▄▄▄▄▄▄▄▄▄▄▄▄▄▄▄▄▄▄▄▄▄▄▄▄▄▄▄▄▄▄▄▄█■
■█▀▀▀▀▀▀▀▀▀▀▀▀▀▀▀▀▀▀▀▀▀▀▀▀▀▀▀▀▀▀▀▀MEDIAINFO▀▀▀▀▀▀▀▀▀▀▀▀▀▀▀▀▀▀▀▀▀▀▀▀▀▀▀▀▀▀▀▀▀▀▀█■
■▌                                                                            ▐■
■▌ Format                      : MPEG-4                                       ▐■
■▌ Format profile              : Base Media                                   ▐■
■▌ Codec ID                    : isom (isom/iso2/avc1/mp41)                   ▐■
■▌ File size                   : 905 MiB                                      ▐■
■▌ Duration                    : 2 h 17 min                                   ▐■
■▌ Overall bit rate            : 918 kb/s                                     ▐■
■▌ Writing application         : Lavf56.32.100                                ▐■
■▌                                                                            ▐■
■▌ Video                                                                      ▐■
■▌ ID                          : 1                                            ▐■
■▌ Format                      : AVC                                          ▐■
■▌ Format/Info                 : Advanced Video Codec                         ▐■
■▌ Format profile              : High@L3                                      ▐■
■▌ Format settings             : CABAC / 8 Ref Frames                         ▐■
■▌ Format settings, CABAC      : Yes                                          ▐■
■▌ Format settings, ReFrames   : 8 frames                                     ▐■
■▌ Codec ID                    : avc1                                         ▐■
■▌ Codec ID/Info               : Advanced Video Coding                        ▐■
■▌ Duration                    : 2 h 17 min                                   ▐■
■▌ Bit rate                    : 815 kb/s                                     ▐■
■▌ Width                       : 720 pixels                                   ▐■
■▌ Height                      : 312 pixels                                   ▐■
■▌ Display aspect ratio        : 2.35:1                                       ▐■
■▌ Frame rate mode             : Constant                                     ▐■
■▌ Frame rate                  : 25.000 FPS                                   ▐■
■▌ Color space                 : YUV                                          ▐■
■▌ Chroma subsampling          : 4:2:0                                        ▐■
■▌ Bit depth                   : 8 bits                                       ▐■
■▌ Scan type                   : Progressive                                  ▐■
■▌ Bits/(Pixel*Frame)          : 0.145                                        ▐■
■▌ Stream size                 : 803 MiB (89%)                                ▐■
■▌ Writing library             : x264 core 148 r2705 3f5ed56                  ▐■
■▌ Encoding settings           : cabac=1 / ref=8 / deblock=1:0:0              ▐■
■▌        / analyse=0x3:0x113 / me=umh / subme=9 / psy=1 / psy_rd=1.00:0.00   ▐■
■▌        / mixed_ref=1 / me_range=24 / chroma_me=1 / trellis=1 / 8x8dct=1    ▐■
■▌        / cqm=0 / deadzone=21,11 / fast_pskip=1 / chroma_qp_offset=-2       ▐■
■▌        / threads=6 / lookahead_threads=1 / sliced_threads=0 / nr=0         ▐■
■▌        / decimate=1 / interlaced=0 / bluray_compat=0 / constrained_intra=0 ▐■
■▌        / bframes=5 / b_pyramid=2 / b_adapt=2 / b_bias=0 / direct=3         ▐■
■▌        / weightb=1 / open_gop=0 / weightp=2 / keyint=240 / keyint_min=23   ▐■
■▌        / scenecut=40 / intra_refresh=0 / rc_lookahead=60 / rc=2pass        ▐■
■▌        / mbtree=1 / bitrate=815 / ratetol=1.0 / qcomp=0.60 / qpmin=0       ▐■
■▌        / qpmax=69 / qpstep=4 / cplxblur=20.0 / qblur=0.5 / ip_ratio=1.40   ▐■
■▌        / aq=2:1.00                                                         ▐■
■▌                                                                            ▐■
■▌ Audio                                                                      ▐■
■▌ ID                          : 2                                            ▐■
■▌ Format                      : AAC                                          ▐■
■▌ Format/Info                 : Advanced Audio Codec                         ▐■
■▌ Format profile              : LC                                           ▐■
■▌ Codec ID                    : mp4a-40-2                                    ▐■
■▌ Duration                    : 2 h 17 min                                   ▐■
■▌ Bit rate mode               : Constant                                     ▐■
■▌ Bit rate                    : 96.0 kb/s                                    ▐■
■▌ Channel(s)                  : 2 channels                                   ▐■
■▌ Channel positions           : Front: L R                                   ▐■
■▌ Sampling rate               : 48.0 kHz                                     ▐■
■▌ Frame rate                  : 46.875 FPS (1024 SPF)                        ▐■
■▌ Compression mode            : Lossy                                        ▐■
■▌ Stream size                 : 94.6 MiB (10%)                               ▐■
■▌ Language                    : English                                      ▐■
■▌ Default                     : Yes                                          ▐■
■▌ Alternate group             : 1                                            ▐■
■▌                                                                            ▐■
■█▀▄▀▄▀▄▀▄▀▄▀▄▀▄▀▄▀▄▀▄▀▄▀▄▀▄▀▄▀▄▀▄▀▄▀▄◘◘▄▀▄▀▄▀▄▀▄▀▄▀▄▀▄▀▄▀▄▀▄▀▄▀▄▀▄▀▄▀▄▀▄▀▄▀▄▀█■
▀▀▀▀▀▀▀▀▀▀▀▀▀▀▀▀▀▀▀▀▀▀▀▀▀▀▀▀▀▀▀▀▀▀▀▀▀▀▀▀▀▀▀▀▀▀▀▀▀▀▀▀▀▀▀▀▀▀▀▀▀▀▀▀▀▀▀▀▀▀▀▀▀▀▀▀▀▀▀▀


This NFO File was rendered by NFOmation.net

ÜÜÜÜÜÜÜÜÜÜÜÜÜÜÜÜÜÜÜÜÜÜÜÜÜÜÜÜÜÜÜÜÜÜÜÜÜÜÜÜÜÜÜÜÜÜÜÜÜÜÜÜÜÜÜÜÜÜÜÜÜÜÜÜÜÜÜÜÜÜÜÜÜÜÜÜÜÜÜÜ
þÛÜßÜßÜßÜßÜßÜßÜßÜßÜßÜßÜßÜßÜßÜßÜßÜßÜßÜßßÜßÜßÜßÜßÜßÜßÜßÜßÜßÜßÜßÜßÜßÜßÜßÜßÜßÜßÜÛþ
þÝÝÿÿÿÿÿÿÿÿÿÿÿÿÿÿÿÿÿÿÿÿÿÿÿÿÿÿÿÿÿÿÿÿÿÿÿÿÿÿÿÿÿÿÿÿÿÿÿÿÿÿÿÿÿÿÿÿÿÿÿÿÿÿÿÿÿÿÿÿÿÿÿÿÿÿÞÞþ
þÝÝÿÿDDDDDDDDDDDDDÿÿÿÿÿÿÿÿÿÿiiiiÿÿRRRRRRRRRRRRRRRRRÿÿÿÿÿÿÿÿÿÿÿGGGGGGGGGGGGGÿÿÞÞþ
þÝÝÿÿD²²²²²²²²²²²²DDDÿÿÿÿÿÿi²²²²iÿR²²²²²²²²²²²²²²²²RÿÿÿÿÿÿÿGGG²²²²²²²²²²²²GÿÿÞÞþ
þÝÝÿÿD²²²²²²²²²²²²²²²DDÿÿÿÿÿiiiiÿÿR²²²²²²RRRRRR²²²²²RÿÿÿÿGG²²²²²²²²²²²²²²²GÿÿÞÞþ
þÝÝÿÿDDD²²²²²DDDDD²²²²²DÿÿÿÿÿÿÿÿÿÿRR²²²²²RÿÿÿÿÿR²²²²²RÿÿG²²²²²GGGGGGGG²²²²GÿÿÞÞþ
þÝÝÿÿÿÿD²²²²²DÿÿÿÿD²²²²²DÿiiiiiiiÿÿÿR²²²²RÿÿÿÿÿR²²²²²RÿG²²²²²GÿÿÿÿÿÿÿGGGGGGÿÿÞÞþ
þÝÝÿÿÿÿD²²²²²DÿÿÿÿÿD²²²²²Di²²²²²iÿÿÿR²²²²RÿÿÿÿÿR²²²²²RG²²²²²GÿÿÿÿÿÿÿÿÿÿÿÿÿÿÿÿÞÞþ
þÝÝÿÿÿÿD²²²²²DÿÿÿÿÿD²²²²²Dÿi²²²²iÿÿÿR²²²²RRRRRR²²²²²RÿG²²²²²GÿÿÿÿÿÿÿÿÿÿÿÿÿÿÿÿÞÞþ
þÝÝÿÿÿÿD²²²²²DÿÿÿÿÿD²²²²²Dÿi²²²²iÿÿÿR²²²²²²²²²²²²²RRÿÿG²²²²²GÿÿÿÿGGGGGGGGGGÿÿÞÞþ
þÝÝÿÿÿÿD²²²²²DÿÿÿÿÿD²²²²²Dÿi²²²²iÿÿÿR²²²²RRRRRR²²²²²RÿG²²²²²GÿÿÿÿG²²²²²²²²GÿÿÞÞþ
þÝÝÿÿÿÿD²²²²²DÿÿÿÿÿD²²²²²Dÿi²²²²iÿÿÿR²²²²RÿÿÿÿÿR²²²²²RG²²²²²GÿÿÿÿGGGGG²²²²GÿÿÞÞþ
þÝÝÿÿÿÿD²²²²²DÿÿÿÿÿD²²²²²Dÿi²²²²iÿÿÿR²²²²RÿÿÿÿÿR²²²²²RG²²²²²GÿÿÿÿÿÿÿÿG²²²²GÿÿÞÞþ
þÝÝÿÿÿÿD²²²²²DÿÿÿÿD²²²²²Dÿÿi²²²²iÿÿÿR²²²²RÿÿÿÿÿR²²²²²RÿG²²²²²GÿÿÿÿÿÿÿG²²²²GÿÿÞÞþ
þÝÝÿÿDDD²²²²²DDDDD²²²²²Dÿÿi²²²²²²iRR²²²²²RÿÿÿÿÿR²²²²²RÿÿG²²²²²GGGGGGGG²²²²GÿÿÞÞþ
þÝÝÿÿD²²²²²²²²²²²²²²²DDÿÿÿi²²²²²²iR²²²²²²RÿÿÿÿÿR²²²²²RÿÿÿGG²²²²²²²²²²²²²²²GÿÿÞÞþ
þÝÝÿÿD²²²²²²²²²²²²DDDÿÿÿÿÿi²²²²²²iR²²²²²²RÿÿÿÿÿR²²²²²RÿÿÿÿÿGGG²²²²²²GGG²²²GÿÿÞÞþ
þÝÝÿÿDDDDDDDDDDDDDÿÿÿÿÿÿÿÿiiiiiiiiRRRRRRRRÿÿÿÿÿRRRRRRRÿÿÿÿÿÿÿÿGGGGGGÿÿÿGGGGÿÿÞÞþ
þÝÝÿÿÿÿÿÿÿÿÿÿÿÿÿÿÿÿÿÿÿÿÿÿÿÿÿÿÿÿÿÿÿÿÿÿÿÿÿÿÿÿÿÿÿÿÿÿÿÿÿÿÿÿÿÿÿÿÿÿÿÿÿÿÿÿÿÿÿÿÿÿÿÿÿÿÞÞþ
þÝÝÿÿÿÿÿÿÿÿÿÿÿÿÿÿÿÿÿÿÿÿÿÿÿÿÿÿDISLIKEDÿRELEASEÿGROUPÿÿÿÿÿÿÿÿÿÿÿÿÿÿÿÿÿÿÿÿÿÿÿÿÿÿÞÞþ
þÝÝÿÿÿÿÿÿÿÿÿÿÿÿÿÿÿÿÿÿÿÿÿNOBODYÿEVENÿWANTSÿTOÿRETAGÿUSÿ:(ÿÿÿÿÿÿÿÿÿÿÿÿÿÿÿÿÿÿÿÿÿÞÞþ
þÝÝÿÿÿÿÿÿÿÿÿÿÿÿÿÿÿÿÿÿÿÿÿÿÿÿÿÿÿÿÿÿÿÿÿÿÿÿÿÿÿÿÿÿÿÿÿÿÿÿÿÿÿÿÿÿÿÿÿÿÿÿÿÿÿÿÿÿÿÿÿÿÿÿÿÿÞÞþ
þÛßÜßÜßÜßÜßÜßÜßÜßÜßÜßÜßÜßÜßÜßÜßÜßÜßÜßÜÜßÜßÜßÜßÜßÜßÜßÜßÜßÜßÜßÜßÜßÜßÜßÜßÜßÜßÜßÛþ
þÛßßßßßßßßßßßßßßßßßßßßßßßßßßßßßßßßßßßßßßßßßßßßßßßßßßßßßßßßßßßßßßßßßßßßßßßßßßßßÛþ
þÛ               ÿÿAvengers.Infinity.War.2018.HDTC.x264-DiRG                  Ûþ
þÛÜÜÜÜÜÜÜÜÜÜÜÜÜÜÜÜÜÜÜÜÜÜÜÜÜÜÜÜÜÜÜÜÜÜÜÜÜÜÜÜÜÜÜÜÜÜÜÜÜÜÜÜÜÜÜÜÜÜÜÜÜÜÜÜÜÜÜÜÜÜÜÜÜÜÜÜÛþ
þÛßßßßßßßßßßßßßßßßßßßßßßßßßßßßßßßRELEASE INFOßßßßßßßßßßßßßßßßßßßßßßßßßßßßßßßßßÛþ
þÝ                                                                            Þþ
þÝ TITLE : Avengers: Infinity War (2018)                                      Þþ
þÝ IMDB : https://www.imdb.com/title/tt4154756                                Þþ
þÝ PLOT : The Avengers and their allies must be willing to sacrifice all in   Þþ
þÝ        an attempt to defeat the powerful Thanos before his blitz of        Þþ
þÝ        devastation and ruin puts an end to the universe.                   Þþ
þÝ STARS : Robert Downey Jr., Chris Hemsworth, Mark Ruffalo                   Þþ
þÝ GENRE : Action, Adventure, Fantasy                                         Þþ
þÝ FILE FORMAT : MP4                                                          Þþ
þÝ VIDEO FORMAT : H264 AVC Profile High@L3                                    Þþ
þÝ AUDIO FORMAT : AAC 96kbps                                                  Þþ
þÝ LANGUAGE : English                                                         Þþ
þÝ SUBTITLES : -                                                              Þþ
þÝ RESOLUTION : 720 x 312                                                     Þþ
þÝ DURATION : 2h17                                                            Þþ
þÝ SIZE : 900 MB                                                              Þþ
þÝ SOURCE : 720p HDTC Cr@zyTribal                                             Þþ
þÝ                                                                            Þþ
þÝ                                                                            Þþ
þÝ                              !!! NOTE !!!                                  Þþ
þÝ    Cr@zyTribal HDTC source was used for both audio and video.              Þþ
þÝ     - Corrected aspect ratio.                                              Þþ
þÝ     - Color & level corrected. Removed the greenish tint and gave          Þþ
þÝ       the picture a bit more pop.                                          Þþ
þÝ                                                                            Þþ
þÝ                                                                            Þþ
þÝ              Give a hoot & don't just leech this loot...                   Þþ
þÝ                                                                            Þþ
þÝ                                                                            Þþ
þÝ  SAMPLE INCLUDED                                                           Þþ
þÝ                                                                            Þþ
þÝ     ... And don't y'all forget it now ... DiRG specializes in turd ...     Þþ
þÝ         ... We go knee deep in turd just for your convenience! ...         Þþ
þÝ                                                                            Þþ
þÝ               Cammers or suppliers of goodies can contact us @             Þþ
þÝ                               dirg@tuta.io                                 Þþ
þÝ                                                                            Þþ
þÛÜÜÜÜÜÜÜÜÜÜÜÜÜÜÜÜÜÜÜÜÜÜÜÜÜÜÜÜÜÜÜÜÜÜÜÜÜÜÜÜÜÜÜÜÜÜÜÜÜÜÜÜÜÜÜÜÜÜÜÜÜÜÜÜÜÜÜÜÜÜÜÜÜÜÜÜÛþ
þÛßßßßßßßßßßßßßßßßßßßßßßßßßßßßßßßSCREENS SHOTßßßßßßßßßßßßßßßßßßßßßßßßßßßßßßßßßÛþ
þÝ                  https://extraimage.net/image/NjMW                         Þþ
þÝ                  https://extraimage.net/image/NjMf                         Þþ
þÛÜÜÜÜÜÜÜÜÜÜÜÜÜÜÜÜÜÜÜÜÜÜÜÜÜÜÜÜÜÜÜÜÜÜÜÜÜÜÜÜÜÜÜÜÜÜÜÜÜÜÜÜÜÜÜÜÜÜÜÜÜÜÜÜÜÜÜÜÜÜÜÜÜÜÜÜÛþ
þÛßßßßßßßßßßßßßßßßßßßßßßßßßßßßßßßßMEDIAINFOßßßßßßßßßßßßßßßßßßßßßßßßßßßßßßßßßßßÛþ
þÝ                                                                            Þþ
þÝ Format                      : MPEG-4                                       Þþ
þÝ Format profile              : Base Media                                   Þþ
þÝ Codec ID                    : isom (isom/iso2/avc1/mp41)                   Þþ
þÝ File size                   : 905 MiB                                      Þþ
þÝ Duration                    : 2 h 17 min                                   Þþ
þÝ Overall bit rate            : 918 kb/s                                     Þþ
þÝ Writing application         : Lavf56.32.100                                Þþ
þÝ                                                                            Þþ
þÝ Video                                                                      Þþ
þÝ ID                          : 1                                            Þþ
þÝ Format                      : AVC                                          Þþ
þÝ Format/Info                 : Advanced Video Codec                         Þþ
þÝ Format profile              : High@L3                                      Þþ
þÝ Format settings             : CABAC / 8 Ref Frames                         Þþ
þÝ Format settings, CABAC      : Yes                                          Þþ
þÝ Format settings, ReFrames   : 8 frames                                     Þþ
þÝ Codec ID                    : avc1                                         Þþ
þÝ Codec ID/Info               : Advanced Video Coding                        Þþ
þÝ Duration                    : 2 h 17 min                                   Þþ
þÝ Bit rate                    : 815 kb/s                                     Þþ
þÝ Width                       : 720 pixels                                   Þþ
þÝ Height                      : 312 pixels                                   Þþ
þÝ Display aspect ratio        : 2.35:1                                       Þþ
þÝ Frame rate mode             : Constant                                     Þþ
þÝ Frame rate                  : 25.000 FPS                                   Þþ
þÝ Color space                 : YUV                                          Þþ
þÝ Chroma subsampling          : 4:2:0                                        Þþ
þÝ Bit depth                   : 8 bits                                       Þþ
þÝ Scan type                   : Progressive                                  Þþ
þÝ Bits/(Pixel*Frame)          : 0.145                                        Þþ
þÝ Stream size                 : 803 MiB (89%)                                Þþ
þÝ Writing library             : x264 core 148 r2705 3f5ed56                  Þþ
þÝ Encoding settings           : cabac=1 / ref=8 / deblock=1:0:0              Þþ
þÝ        / analyse=0x3:0x113 / me=umh / subme=9 / psy=1 / psy_rd=1.00:0.00   Þþ
þÝ        / mixed_ref=1 / me_range=24 / chroma_me=1 / trellis=1 / 8x8dct=1    Þþ
þÝ        / cqm=0 / deadzone=21,11 / fast_pskip=1 / chroma_qp_offset=-2       Þþ
þÝ        / threads=6 / lookahead_threads=1 / sliced_threads=0 / nr=0         Þþ
þÝ        / decimate=1 / interlaced=0 / bluray_compat=0 / constrained_intra=0 Þþ
þÝ        / bframes=5 / b_pyramid=2 / b_adapt=2 / b_bias=0 / direct=3         Þþ
þÝ        / weightb=1 / open_gop=0 / weightp=2 / keyint=240 / keyint_min=23   Þþ
þÝ        / scenecut=40 / intra_refresh=0 / rc_lookahead=60 / rc=2pass        Þþ
þÝ        / mbtree=1 / bitrate=815 / ratetol=1.0 / qcomp=0.60 / qpmin=0       Þþ
þÝ        / qpmax=69 / qpstep=4 / cplxblur=20.0 / qblur=0.5 / ip_ratio=1.40   Þþ
þÝ        / aq=2:1.00                                                         Þþ
þÝ                                                                            Þþ
þÝ Audio                                                                      Þþ
þÝ ID                          : 2                                            Þþ
þÝ Format                      : AAC                                          Þþ
þÝ Format/Info                 : Advanced Audio Codec                         Þþ
þÝ Format profile              : LC                                           Þþ
þÝ Codec ID                    : mp4a-40-2                                    Þþ
þÝ Duration                    : 2 h 17 min                                   Þþ
þÝ Bit rate mode               : Constant                                     Þþ
þÝ Bit rate                    : 96.0 kb/s                                    Þþ
þÝ Channel(s)                  : 2 channels                                   Þþ
þÝ Channel positions           : Front: L R                                   Þþ
þÝ Sampling rate               : 48.0 kHz                                     Þþ
þÝ Frame rate                  : 46.875 FPS (1024 SPF)                        Þþ
þÝ Compression mode            : Lossy                                        Þþ
þÝ Stream size                 : 94.6 MiB (10%)                               Þþ
þÝ Language                    : English                                      Þþ
þÝ Default                     : Yes                                          Þþ
þÝ Alternate group             : 1                                            Þþ
þÝ                                                                            Þþ
þÛßÜßÜßÜßÜßÜßÜßÜßÜßÜßÜßÜßÜßÜßÜßÜßÜßÜßÜÜßÜßÜßÜßÜßÜßÜßÜßÜßÜßÜßÜßÜßÜßÜßÜßÜßÜßÜßÛþ
ßßßßßßßßßßßßßßßßßßßßßßßßßßßßßßßßßßßßßßßßßßßßßßßßßßßßßßßßßßßßßßßßßßßßßßßßßßßßßßßß


This NFO File was rendered by NFOmation.net


Bookmark and Share

<Mascot>
[ Sitemap ]

aa21