NFOmation.net - Your Ultimate NFO Upload Resource! Viewing NFO file: INFO.nfo INFO

*******************************************************************************
                            A Star Is Born BRRip 1080p
*******************************************************************************

-------------------------------------------------------------------------------
                               Informacion General
-------------------------------------------------------------------------------

                         - WWW.DIMENSIONPELICULAS.NET -

-------------------------------------------------------------------------------
                                 Release Notes
-------------------------------------------------------------------------------
General
Format                      : Matroska
Format version              : Version 2
File size                   : 3.31 GiB
Duration                    : 2 h 15 min
Overall bit rate            : 3 496 kb/s

Video
ID                          : 1
Format                      : AVC
Format/Info                 : Advanced Video Codec
Format profile              : High@L4.1
Format settings             : CABAC / 5 Ref Frames
Format settings, CABAC      : Yes
Format settings, ReFrames   : 5 frames
Muxing mode                 : Header stripping
Codec ID                    : V_MPEG4/ISO/AVC
Duration                    : 2 h 15 min
Bit rate                    : 2 600 kb/s
Width                       : 1 920 pixels
Height                      : 800 pixels
Display aspect ratio        : 2.40:1
Frame rate mode             : Constant
Frame rate                  : 23.976 (24000/1001) FPS
Color space                 : YUV
Chroma subsampling          : 4:2:0
Bit depth                   : 8 bits
Scan type                   : Progressive
Bits/(Pixel*Frame)          : 0.071
Stream size                 : 2.40 GiB (72%)
Title                       : WWW.DIMENSIONPELICULAS.NET
Writing library             : x264 core 155 r2901 7d0ff22
Encoding settings           : cabac=1 / ref=5 / deblock=1:0:0 / analyse=0x3:0x133 / me=umh / subme=9 >>
/ psy=1 / psy_rd=1.00:0.00 / mixed_ref=1 / me_range=16 / chroma_me=1 / trellis=2 / 8x8dct=1 / cqm=0 / >>
deadzone=21,11 / fast_pskip=1 / chroma_qp_offset=-2 / threads=25 / lookahead_threads=2 / sliced_threads=0 >>
/ nr=0 / decimate=1 / interlaced=0 / bluray_compat=0 / constrained_intra=0 / bframes=3 / b_pyramid=2 >>
/ b_adapt=2 / b_bias=0 / direct=3 / weightb=1 / open_gop=0 / weightp=2 / keyint=240 / keyint_min=24 / >>
scenecut=40 / intra_refresh=0 / rc_lookahead=60 / rc=2pass / mbtree=1 / bitrate=2600 / ratetol=1.0 / >>
qcomp=0.60 / qpmin=0 / qpmax=69 / qpstep=4 / cplxblur=20.0 / qblur=0.5 / vbv_maxrate=62500 / >>
vbv_bufsize=78125 / nal_hrd=none / filler=0 / ip_ratio=1.40 / aq=1:1.00
Default                     : Yes
Forced                      : No
Color range                 : Limited
Color primaries             : BT.709
Transfer characteristics    : BT.709
Matrix coefficients         : BT.709

Audio #1
ID                          : 2
Format                      : AC-3
Format/Info                 : Audio Coding 3
Commercial name             : Dolby Digital
Muxing mode                 : Header stripping
Codec ID                    : A_AC3
Duration                    : 2 h 15 min
Bit rate mode               : Constant
Bit rate                    : 448 kb/s
Channel(s)                  : 6 channels
Channel positions           : Front: L C R, Side: L R, LFE
Sampling rate               : 48.0 kHz
Frame rate                  : 31.250 FPS (1536 SPF)
Bit depth                   : 16 bits
Compression mode            : Lossy
Stream size                 : 435 MiB (13%)
Title                       : WWW.DIMENSIONPELICULAS.NET
Language                    : English
Service kind                : Complete Main
Default                     : Yes
Forced                      : No

Audio #2
ID                          : 4
Format                      : AC-3
Format/Info                 : Audio Coding 3
Commercial name             : Dolby Digital
Muxing mode                 : Header stripping
Codec ID                    : A_AC3
Duration                    : 2 h 15 min
Bit rate mode               : Constant
Bit rate                    : 448 kb/s
Channel(s)                  : 6 channels
Channel positions           : Front: L C R, Side: L R, LFE
Sampling rate               : 48.0 kHz
Frame rate                  : 31.250 FPS (1536 SPF)
Bit depth                   : 16 bits
Compression mode            : Lossy
Stream size                 : 435 MiB (13%)
Title                       : WWW.DIMENSIONPELICULAS.NET
Language                    : Spanish
Service kind                : Complete Main
Default                     : No
Forced                      : No

Text #1
ID                          : 3
Format                      : UTF-8
Codec ID                    : S_TEXT/UTF8
Codec ID/Info               : UTF-8 Plain Text
Title                       : WWW.DIMENSIONPELICULAS.NET
Language                    : Spanish
Default                     : Yes
Forced                      : No

Text #2
ID                          : 5
Format                      : UTF-8
Codec ID                    : S_TEXT/UTF8
Codec ID/Info               : UTF-8 Plain Text
Title                       : FORZADO
Language                    : Spanish
Default                     : No
Forced                      : No



This NFO File was rendered by NFOmation.net

*******************************************************************************
                            A Star Is Born BRRip 1080p
*******************************************************************************

-------------------------------------------------------------------------------
                               Informacion General
-------------------------------------------------------------------------------

                         - WWW.DIMENSIONPELICULAS.NET -

-------------------------------------------------------------------------------
                                 Release Notes
-------------------------------------------------------------------------------
General
Format                      : Matroska
Format version              : Version 2
File size                   : 3.31 GiB
Duration                    : 2 h 15 min
Overall bit rate            : 3 496 kb/s

Video
ID                          : 1
Format                      : AVC
Format/Info                 : Advanced Video Codec
Format profile              : High@L4.1
Format settings             : CABAC / 5 Ref Frames
Format settings, CABAC      : Yes
Format settings, ReFrames   : 5 frames
Muxing mode                 : Header stripping
Codec ID                    : V_MPEG4/ISO/AVC
Duration                    : 2 h 15 min
Bit rate                    : 2 600 kb/s
Width                       : 1 920 pixels
Height                      : 800 pixels
Display aspect ratio        : 2.40:1
Frame rate mode             : Constant
Frame rate                  : 23.976 (24000/1001) FPS
Color space                 : YUV
Chroma subsampling          : 4:2:0
Bit depth                   : 8 bits
Scan type                   : Progressive
Bits/(Pixel*Frame)          : 0.071
Stream size                 : 2.40 GiB (72%)
Title                       : WWW.DIMENSIONPELICULAS.NET
Writing library             : x264 core 155 r2901 7d0ff22
Encoding settings           : cabac=1 / ref=5 / deblock=1:0:0 / analyse=0x3:0x133 / me=umh / subme=9 >>
/ psy=1 / psy_rd=1.00:0.00 / mixed_ref=1 / me_range=16 / chroma_me=1 / trellis=2 / 8x8dct=1 / cqm=0 / >>
deadzone=21,11 / fast_pskip=1 / chroma_qp_offset=-2 / threads=25 / lookahead_threads=2 / sliced_threads=0 >>
/ nr=0 / decimate=1 / interlaced=0 / bluray_compat=0 / constrained_intra=0 / bframes=3 / b_pyramid=2 >>
/ b_adapt=2 / b_bias=0 / direct=3 / weightb=1 / open_gop=0 / weightp=2 / keyint=240 / keyint_min=24 / >>
scenecut=40 / intra_refresh=0 / rc_lookahead=60 / rc=2pass / mbtree=1 / bitrate=2600 / ratetol=1.0 / >>
qcomp=0.60 / qpmin=0 / qpmax=69 / qpstep=4 / cplxblur=20.0 / qblur=0.5 / vbv_maxrate=62500 / >>
vbv_bufsize=78125 / nal_hrd=none / filler=0 / ip_ratio=1.40 / aq=1:1.00
Default                     : Yes
Forced                      : No
Color range                 : Limited
Color primaries             : BT.709
Transfer characteristics    : BT.709
Matrix coefficients         : BT.709

Audio #1
ID                          : 2
Format                      : AC-3
Format/Info                 : Audio Coding 3
Commercial name             : Dolby Digital
Muxing mode                 : Header stripping
Codec ID                    : A_AC3
Duration                    : 2 h 15 min
Bit rate mode               : Constant
Bit rate                    : 448 kb/s
Channel(s)                  : 6 channels
Channel positions           : Front: L C R, Side: L R, LFE
Sampling rate               : 48.0 kHz
Frame rate                  : 31.250 FPS (1536 SPF)
Bit depth                   : 16 bits
Compression mode            : Lossy
Stream size                 : 435 MiB (13%)
Title                       : WWW.DIMENSIONPELICULAS.NET
Language                    : English
Service kind                : Complete Main
Default                     : Yes
Forced                      : No

Audio #2
ID                          : 4
Format                      : AC-3
Format/Info                 : Audio Coding 3
Commercial name             : Dolby Digital
Muxing mode                 : Header stripping
Codec ID                    : A_AC3
Duration                    : 2 h 15 min
Bit rate mode               : Constant
Bit rate                    : 448 kb/s
Channel(s)                  : 6 channels
Channel positions           : Front: L C R, Side: L R, LFE
Sampling rate               : 48.0 kHz
Frame rate                  : 31.250 FPS (1536 SPF)
Bit depth                   : 16 bits
Compression mode            : Lossy
Stream size                 : 435 MiB (13%)
Title                       : WWW.DIMENSIONPELICULAS.NET
Language                    : Spanish
Service kind                : Complete Main
Default                     : No
Forced                      : No

Text #1
ID                          : 3
Format                      : UTF-8
Codec ID                    : S_TEXT/UTF8
Codec ID/Info               : UTF-8 Plain Text
Title                       : WWW.DIMENSIONPELICULAS.NET
Language                    : Spanish
Default                     : Yes
Forced                      : No

Text #2
ID                          : 5
Format                      : UTF-8
Codec ID                    : S_TEXT/UTF8
Codec ID/Info               : UTF-8 Plain Text
Title                       : FORZADO
Language                    : Spanish
Default                     : No
Forced                      : No



This NFO File was rendered by NFOmation.net


<Mascot>

aa21