NFOmation.net - Your Ultimate NFO Upload Resource! Viewing NFO file: INFO.nfo INFO

******************************************************************************* >>
Under the Silver Lake BRRip 720p
******************************************************************* >>
***********
------------------------------------------------------------------------------- >>
Informacion General
------------------------------------------------------------------------------- >>
- WWW.DIMENSIONPELICULAS.NET -
-------------------------------------------------------------------- >>
----------
                                 Release Notes
------------------------------------------ >>
------------------------------------
General
Format                      : Matroska
Format version >>
: Version 2
File size                   : 1.79 GiB
Duration                    : 2 h 19 min
Overall bit >>
rate            : 1 834 kb/s
Movie name                  : WWW.DIMENSIONPELICULAS.NET
Video
ID >>
: 1
Format                      : AVC
Format/Info                 : Advanced Video Codec
Format profile >>
: High@L4.1
Format settings             : CABAC / 4 Ref Frames
Format settings, CABAC      : >>
Yes
Format settings, ReFrames   : 4 frames
Muxing mode                 : Header stripping
Codec ID >>
: V_MPEG4/ISO/AVC
Duration                    : 2 h 19 min
Nominal bit rate            : 1 050 >>
kb/s
Width                       : 1 280 pixels
Height                      : 534 pixels
Display aspect >>
ratio        : 2.40:1
Original display aspect rat : 2.40:1
Frame rate mode             : Constant
Frame >>
rate                  : 23.976 (24000/1001) FPS
Color space                 : YUV
Chroma subsampling >>
: 4:2:0
Bit depth                   : 8 bits
Scan type                   : Progressive
Bits/(Pixel*Frame) >>
: 0.064
Title                       : WWW.DIMENSIONPELICULAS.NET
Writing library             : x264 core >>
157
Encoding settings           : cabac=1 / ref=4 / deblock=1:-1:-1 / analyse=0x3:0x133 / me=umh / subme=9 >>
/ psy=1 / psy_rd=1.00:0.15 / mixed_ref=1 / me_range=24 / chroma_me=1 / trellis=2 / 8x8dct=1 / cqm=0 / >>
deadzone=21,11 / fast_pskip=0 / chroma_qp_offset=-3 / threads=17 / lookahead_threads=1 / sliced_threads=0 >>
/ nr=0 / decimate=1 / interlaced=0 / bluray_compat=0 / constrained_intra=0 / bframes=3 / b_pyramid=2 >>
/ b_adapt=2 / b_bias=0 / direct=3 / weightb=1 / open_gop=0 / weightp=2 / keyint=250 / keyint_min=23 / >>
scenecut=40 / intra_refresh=0 / rc_lookahead=60 / rc=2pass / mbtree=1 / bitrate=1050 / ratetol=1.0 / >>
qcomp=0.60 / qpmin=0 / qpmax=69 / qpstep=4 / cplxblur=20.0 / qblur=0.5 / vbv_maxrate=31250 / >>
vbv_bufsize=31250 / nal_hrd=none / filler=0 / ip_ratio=1.40 / aq=1:1.00
Default                     : >>
Yes
Forced                      : No
Audio #1
ID                          : 2
Format >>
: AAC
Format/Info                 : Advanced Audio Codec
Format profile              : LC
Codec ID >>
: A_AAC-2
Duration                    : 2 h 19 min
Channel(s)                  : 2 channels
Channel >>
positions           : Front: L R
Sampling rate               : 48.0 kHz
Frame rate                  : >>
46.875 FPS (1024 SPF)
Compression mode            : Lossy
Title                       : WWW.DIMENSIO >>
PELICULAS.NET
Language                    : English
Default                     : Yes
Forced >>
: No
Audio #2
ID                          : 4
Format                      : E-AC-3
Format/Info >>
: Enhanced AC-3
Commercial name             : Dolby Digital Plus
Muxing mode                 : Header >>
stripping
Codec ID                    : A_EAC3
Duration                    : 2 h 19 min
Bit rate mode >>
: Constant
Bit rate                    : 640 kb/s
Channel(s)                  : 6 channels
Channel >>
positions           : Front: L C R, Side: L R, LFE
Sampling rate               : 48.0 kHz
Frame rate >>
: 31.250 FPS (1536 SPF)
Compression mode            : Lossy
Delay relative to video     : 10 s 100 >>
ms
Stream size                 : 638 MiB (35%)
Title                       : WWW.DIMENSIONPELICULAS. >>
ET
Language                    : Spanish
Service kind                : Complete Main
Default >>
: No
Forced                      : No
Text
ID                          : 3
Format >>
: UTF-8
Codec ID                    : S_TEXT/UTF8
Codec ID/Info               : UTF-8 Plain >>
Text
Title                       : WWW.DIMENSIONPELICULAS.NET
Language                    : >>
Spanish
Default                     : Yes
Forced                      : No


This NFO File was rendered by NFOmation.net

******************************************************************************* >>
Under the Silver Lake BRRip 720p
******************************************************************* >>
***********
------------------------------------------------------------------------------- >>
Informacion General
------------------------------------------------------------------------------- >>
- WWW.DIMENSIONPELICULAS.NET -
-------------------------------------------------------------------- >>
----------
                                 Release Notes
------------------------------------------ >>
------------------------------------
General
Format                      : Matroska
Format version >>
: Version 2
File size                   : 1.79 GiB
Duration                    : 2 h 19 min
Overall bit >>
rate            : 1 834 kb/s
Movie name                  : WWW.DIMENSIONPELICULAS.NET
Video
ID >>
: 1
Format                      : AVC
Format/Info                 : Advanced Video Codec
Format profile >>
: High@L4.1
Format settings             : CABAC / 4 Ref Frames
Format settings, CABAC      : >>
Yes
Format settings, ReFrames   : 4 frames
Muxing mode                 : Header stripping
Codec ID >>
: V_MPEG4/ISO/AVC
Duration                    : 2 h 19 min
Nominal bit rate            : 1 050 >>
kb/s
Width                       : 1 280 pixels
Height                      : 534 pixels
Display aspect >>
ratio        : 2.40:1
Original display aspect rat : 2.40:1
Frame rate mode             : Constant
Frame >>
rate                  : 23.976 (24000/1001) FPS
Color space                 : YUV
Chroma subsampling >>
: 4:2:0
Bit depth                   : 8 bits
Scan type                   : Progressive
Bits/(Pixel*Frame) >>
: 0.064
Title                       : WWW.DIMENSIONPELICULAS.NET
Writing library             : x264 core >>
157
Encoding settings           : cabac=1 / ref=4 / deblock=1:-1:-1 / analyse=0x3:0x133 / me=umh / subme=9 >>
/ psy=1 / psy_rd=1.00:0.15 / mixed_ref=1 / me_range=24 / chroma_me=1 / trellis=2 / 8x8dct=1 / cqm=0 / >>
deadzone=21,11 / fast_pskip=0 / chroma_qp_offset=-3 / threads=17 / lookahead_threads=1 / sliced_threads=0 >>
/ nr=0 / decimate=1 / interlaced=0 / bluray_compat=0 / constrained_intra=0 / bframes=3 / b_pyramid=2 >>
/ b_adapt=2 / b_bias=0 / direct=3 / weightb=1 / open_gop=0 / weightp=2 / keyint=250 / keyint_min=23 / >>
scenecut=40 / intra_refresh=0 / rc_lookahead=60 / rc=2pass / mbtree=1 / bitrate=1050 / ratetol=1.0 / >>
qcomp=0.60 / qpmin=0 / qpmax=69 / qpstep=4 / cplxblur=20.0 / qblur=0.5 / vbv_maxrate=31250 / >>
vbv_bufsize=31250 / nal_hrd=none / filler=0 / ip_ratio=1.40 / aq=1:1.00
Default                     : >>
Yes
Forced                      : No
Audio #1
ID                          : 2
Format >>
: AAC
Format/Info                 : Advanced Audio Codec
Format profile              : LC
Codec ID >>
: A_AAC-2
Duration                    : 2 h 19 min
Channel(s)                  : 2 channels
Channel >>
positions           : Front: L R
Sampling rate               : 48.0 kHz
Frame rate                  : >>
46.875 FPS (1024 SPF)
Compression mode            : Lossy
Title                       : WWW.DIMENSIO >>
PELICULAS.NET
Language                    : English
Default                     : Yes
Forced >>
: No
Audio #2
ID                          : 4
Format                      : E-AC-3
Format/Info >>
: Enhanced AC-3
Commercial name             : Dolby Digital Plus
Muxing mode                 : Header >>
stripping
Codec ID                    : A_EAC3
Duration                    : 2 h 19 min
Bit rate mode >>
: Constant
Bit rate                    : 640 kb/s
Channel(s)                  : 6 channels
Channel >>
positions           : Front: L C R, Side: L R, LFE
Sampling rate               : 48.0 kHz
Frame rate >>
: 31.250 FPS (1536 SPF)
Compression mode            : Lossy
Delay relative to video     : 10 s 100 >>
ms
Stream size                 : 638 MiB (35%)
Title                       : WWW.DIMENSIONPELICULAS. >>
ET
Language                    : Spanish
Service kind                : Complete Main
Default >>
: No
Forced                      : No
Text
ID                          : 3
Format >>
: UTF-8
Codec ID                    : S_TEXT/UTF8
Codec ID/Info               : UTF-8 Plain >>
Text
Title                       : WWW.DIMENSIONPELICULAS.NET
Language                    : >>
Spanish
Default                     : Yes
Forced                      : No


This NFO File was rendered by NFOmation.net


<Mascot>

aa21