NFOmation.net - Your Ultimate NFO Upload Resource! Viewing NFO file: INFO.nfo INFO

******************************************************************************* >>
Space Sweepers WebDL 1080p
************************************************************************* >>
*****
------------------------------------------------------------------------------- >>
Informacion General
------------------------------------------------------------------------------- >>
- WWW.DIMENSIONPELICULAS.NET -
-------------------------------------------------------------------- >>
----------
                                 Release Notes
------------------------------------------ >>
------------------------------------
General
Format                      : Matroska
Format version >>
: Version 2
File size                   : 2.82 GiB
Duration                    : 2 h 17 min
Overall bit >>
rate            : 2 932 kb/s
Video
ID                          : 1
Format                      : >>
AVC
Format/Info                 : Advanced Video Codec
Format profile              : High@L4
Format settings >>
: CABAC / 4 Ref Frames
Format settings, CABAC      : Yes
Format settings, ReFrames   : 4 frames
Muxing >>
mode                 : Header stripping
Codec ID                    : V_MPEG4/ISO/AVC
Duration >>
: 2 h 17 min
Nominal bit rate            : 2 200 kb/s
Width                       : 1 920 pixels
Height >>
: 1 036 pixels
Display aspect ratio        : 1.85:1
Frame rate mode             : Constant
Frame rate >>
: 23.976 (24000/1001) FPS
Color space                 : YUV
Chroma subsampling          : 4:2:0
Bit depth >>
: 8 bits
Scan type                   : Progressive
Bits/(Pixel*Frame)          : 0.046
Title >>
: WWW.DIMENSIONPELICULAS.NET
Writing library             : x264 core 142 r2479 dd79a61
Encoding settings >>
: cabac=1 / ref=3 / deblock=1:0:0 / analyse=0x3:0x113 / me=hex / subme=7 / psy=1 / psy_rd=1.00:0.00 / >>
mixed_ref=1 / me_range=16 / chroma_me=1 / trellis=1 / 8x8dct=1 / cqm=0 / deadzone=21,11 / fast_pskip=1 >>
/ chroma_qp_offset=-2 / threads=18 / lookahead_threads=3 / sliced_threads=0 / nr=0 / decimate=1 / >>
interlaced=0 / bluray_compat=0 / constrained_intra=0 / bframes=3 / b_pyramid=2 / b_adapt=1 / b_bias=0 >>
/ direct=1 / weightb=1 / open_gop=0 / weightp=2 / keyint=240 / keyint_min=24 / scenecut=40 / >>
intra_refresh=0 / rc_lookahead=40 / rc=abr / mbtree=1 / bitrate=2200 / ratetol=1.0 / qcomp=0.60 / qpmin=0 >>
/ qpmax=69 / qpstep=4 / vbv_maxrate=25000 / vbv_bufsize=31250 / nal_hrd=none / filler=0 / ip_ratio=1.40 >>
/ aq=1:1.00
Default                     : Yes
Forced                      : No
Color range >>
: Limited
Color primaries             : BT.709
Transfer characteristics    : BT.709
Matrix >>
coefficients         : BT.709
Audio #1
ID                          : 2
Format                      : >>
AAC
Format/Info                 : Advanced Audio Codec
Format profile              : LC
Codec ID >>
: A_AAC-2
Duration                    : 2 h 17 min
Channel(s)                  : 2 channels
Channel >>
positions           : Front: L R
Sampling rate               : 48.0 kHz
Frame rate                  : >>
46.875 FPS (1024 SPF)
Compression mode            : Lossy
Delay relative to video     : -83 ms
Title >>
: WWW.DIMENSIONPELICULAS.NET
Language                    : Korean
Default                     : >>
Yes
Forced                      : No
Audio #2
ID                          : 4
Format >>
: E-AC-3
Format/Info                 : Enhanced AC-3
Commercial name             : Dolby Digital >>
Plus
Muxing mode                 : Header stripping
Codec ID                    : A_EAC3
Duration >>
: 2 h 17 min
Bit rate mode               : Constant
Bit rate                    : 640 kb/s
Channel(s) >>
: 6 channels
Channel positions           : Front: L C R, Side: L R, LFE
Sampling rate               : >>
48.0 kHz
Frame rate                  : 31.250 FPS (1536 SPF)
Compression mode            : >>
Lossy
Delay relative to video     : -83 ms
Stream size                 : 631 MiB (22%)
Title >>
: WWW.DIMENSIONPELICULAS.NET
Language                    : Spanish
Service kind                : Complete >>
Main
Default                     : No
Forced                      : No
Text #1
ID >>
: 3
Format                      : UTF-8
Codec ID                    : S_TEXT/UTF8
Codec ID/Info >>
: UTF-8 Plain Text
Title                       : WWW.DIMENSIONPELICULAS.NET
Language >>
: Spanish
Default                     : Yes
Forced                      : No
Text #2
ID >>
: 5
Format                      : UTF-8
Codec ID                    : S_TEXT/UTF8
Codec ID/Info >>
: UTF-8 Plain Text
Title                       : FORZADOS
Language                    : Spanish
Default >>
: No
Forced                      : No


This NFO File was rendered by NFOmation.net

******************************************************************************* >>
Space Sweepers WebDL 1080p
************************************************************************* >>
*****
------------------------------------------------------------------------------- >>
Informacion General
------------------------------------------------------------------------------- >>
- WWW.DIMENSIONPELICULAS.NET -
-------------------------------------------------------------------- >>
----------
                                 Release Notes
------------------------------------------ >>
------------------------------------
General
Format                      : Matroska
Format version >>
: Version 2
File size                   : 2.82 GiB
Duration                    : 2 h 17 min
Overall bit >>
rate            : 2 932 kb/s
Video
ID                          : 1
Format                      : >>
AVC
Format/Info                 : Advanced Video Codec
Format profile              : High@L4
Format settings >>
: CABAC / 4 Ref Frames
Format settings, CABAC      : Yes
Format settings, ReFrames   : 4 frames
Muxing >>
mode                 : Header stripping
Codec ID                    : V_MPEG4/ISO/AVC
Duration >>
: 2 h 17 min
Nominal bit rate            : 2 200 kb/s
Width                       : 1 920 pixels
Height >>
: 1 036 pixels
Display aspect ratio        : 1.85:1
Frame rate mode             : Constant
Frame rate >>
: 23.976 (24000/1001) FPS
Color space                 : YUV
Chroma subsampling          : 4:2:0
Bit depth >>
: 8 bits
Scan type                   : Progressive
Bits/(Pixel*Frame)          : 0.046
Title >>
: WWW.DIMENSIONPELICULAS.NET
Writing library             : x264 core 142 r2479 dd79a61
Encoding settings >>
: cabac=1 / ref=3 / deblock=1:0:0 / analyse=0x3:0x113 / me=hex / subme=7 / psy=1 / psy_rd=1.00:0.00 / >>
mixed_ref=1 / me_range=16 / chroma_me=1 / trellis=1 / 8x8dct=1 / cqm=0 / deadzone=21,11 / fast_pskip=1 >>
/ chroma_qp_offset=-2 / threads=18 / lookahead_threads=3 / sliced_threads=0 / nr=0 / decimate=1 / >>
interlaced=0 / bluray_compat=0 / constrained_intra=0 / bframes=3 / b_pyramid=2 / b_adapt=1 / b_bias=0 >>
/ direct=1 / weightb=1 / open_gop=0 / weightp=2 / keyint=240 / keyint_min=24 / scenecut=40 / >>
intra_refresh=0 / rc_lookahead=40 / rc=abr / mbtree=1 / bitrate=2200 / ratetol=1.0 / qcomp=0.60 / qpmin=0 >>
/ qpmax=69 / qpstep=4 / vbv_maxrate=25000 / vbv_bufsize=31250 / nal_hrd=none / filler=0 / ip_ratio=1.40 >>
/ aq=1:1.00
Default                     : Yes
Forced                      : No
Color range >>
: Limited
Color primaries             : BT.709
Transfer characteristics    : BT.709
Matrix >>
coefficients         : BT.709
Audio #1
ID                          : 2
Format                      : >>
AAC
Format/Info                 : Advanced Audio Codec
Format profile              : LC
Codec ID >>
: A_AAC-2
Duration                    : 2 h 17 min
Channel(s)                  : 2 channels
Channel >>
positions           : Front: L R
Sampling rate               : 48.0 kHz
Frame rate                  : >>
46.875 FPS (1024 SPF)
Compression mode            : Lossy
Delay relative to video     : -83 ms
Title >>
: WWW.DIMENSIONPELICULAS.NET
Language                    : Korean
Default                     : >>
Yes
Forced                      : No
Audio #2
ID                          : 4
Format >>
: E-AC-3
Format/Info                 : Enhanced AC-3
Commercial name             : Dolby Digital >>
Plus
Muxing mode                 : Header stripping
Codec ID                    : A_EAC3
Duration >>
: 2 h 17 min
Bit rate mode               : Constant
Bit rate                    : 640 kb/s
Channel(s) >>
: 6 channels
Channel positions           : Front: L C R, Side: L R, LFE
Sampling rate               : >>
48.0 kHz
Frame rate                  : 31.250 FPS (1536 SPF)
Compression mode            : >>
Lossy
Delay relative to video     : -83 ms
Stream size                 : 631 MiB (22%)
Title >>
: WWW.DIMENSIONPELICULAS.NET
Language                    : Spanish
Service kind                : Complete >>
Main
Default                     : No
Forced                      : No
Text #1
ID >>
: 3
Format                      : UTF-8
Codec ID                    : S_TEXT/UTF8
Codec ID/Info >>
: UTF-8 Plain Text
Title                       : WWW.DIMENSIONPELICULAS.NET
Language >>
: Spanish
Default                     : Yes
Forced                      : No
Text #2
ID >>
: 5
Format                      : UTF-8
Codec ID                    : S_TEXT/UTF8
Codec ID/Info >>
: UTF-8 Plain Text
Title                       : FORZADOS
Language                    : Spanish
Default >>
: No
Forced                      : No


This NFO File was rendered by NFOmation.net


<Mascot>

aa21