NFOmation.net - Your Ultimate NFO Upload Resource! Viewing NFO file: sprinter-adip2008bdrip.nfo sprinter-adip2008bdrip


                                                     █████
                                                   █████████
                                                  ██       ██
                                                 ██         █
                                                 █          ██
                                                ██          ██
                                                ██          █
                                                ██          ██
                                                 █          ██
                                                 ██        ███
                                                 █         ██
                                                 █       ███
                                                █      ████
                               █████████████████      ██
                             ███            ██        █
                           ██               █         ██
                           █   ███████     ██          █
                           █   ██████████  █           ██   █████
                           █   █       █████     █     █   ██   ██
                           █   █         ███    ██     █   ██   ██
                           █   █          ██    ██     ██   ██  ██
                           █   █          ██    ██      ██  ██  ██
                           ██  █          ██    ███     ██  ██  █
                           ██ ██          ██     ██      █  █  █
                           ██ ██          ██      ██     ████  █
                            █ ██          ██       ██     ██  ██
                            █ ██          ██        ██    ██  █
                            █ ██          ██        ██    █   █
                            █  ███        ██         ██      ██
                            █   ██        ██          ██     █
                            █    ██       ██         █ ██   ██
                 ARTiCHOKE  ██   ██       ██         █ ██  ██
                            ██████        █         █   ████
     ████   █████    ██████   ████ ███   ████ ██████████ █████████ ██████
    █   █   █    █   █    █   █  █ █ █   █  █ █        █ █       █ █     █
   ██  █    █    █   █     █  █  █ █ █   █  █ █        █ █      ██ █     █
   █   █    █     █  █     █  ████ █ █   █  █ ██       █ █      █  █      █
  ██  █     █ ██  ██ █  █   █      █ █   █  █   ██    ██ █  ████   █  ██  █
  █   █     █ ██   █ █  ██  █ ████ █  █  █  █   ███ ████   █████   █  ██   █
  █  █      █ ██   █ █  ██  █ █  █ █  ██ █  █     █ █    █ █       █  ██   █
  █  ██████ █ ██   █ █  █   █ █  █ █   █ █  █     █ █    █ ████    █  ██  ██
  █       █ █ █   █  █  █  ██ █  █ █   ███  █     █ █    █    █    █  █   █
  █       █ █    ██  █     █  █  █ █    ██  █     █ █    █    █    █     ██
  █       █ █    █   █    ██  █  █ █     █  █     █ █    █    █    █     █
  █       █ █   ██   █    █   █  █ █ ██  █  █     █ █    █    █    █     █
  ██████  █ █   █    █     █  █  █ █ ██     █     █ █    █ ████    █     █
       █  █ █  █     █     █  █  █ █ ███    █     █ █    █ █       █      █
    ████  █ █  █     █  █   █ █  █ █ █ █    █     █ █    █ █████   █      █
   ████   █ █ █      █  ██  █ █  █ █ █ ██   █     █ █    █  █████  █  ██   █
  ██     ██ █ █      █ █ █  █ █ ██ █ █  █   █     █ █    █      █  █  ███  █
  █      █  █ █      ███ ██ █ █ █  █ █   █ ██     ███    █      ██ █ █  █ ██
 ██     █   █ █      ██   ███ ██   █ █   █ █      ██     █       █ ███   ██
 ████████   ███      ██    █  ██   ███    ██      █      █████████ ██    ██

      ████████████████████████████████
  █████                              █████
 ██     SPRiNTER proudly presents...     ██
  █████                              █████
      ████████████████████████████████

 Another.Day.in.Paradise.2008.BDRip.XviD-SPRiNTER
 http://www.imdb.com/title/tt1243922/
 Subtitles: English

 Date: 2011.02
 Genre: Documentary

      █████████████████
  █████               █████
 ██     Release notes     ██
  █████               █████
      █████████████████

 Enjoy!

      ██████████
  █████        █████
 ██      News      ██
  █████        █████
      ██████████

 We are currently looking for:

 - Suppliers who can provide pre-retail or retail dvds with decent upload!
 - 50Mbit+ dump providers with 1TB+ free space.
 - 100mbit+ .kr/.jp affiliation.

 sprinter@hush.com

      ███████████
  █████         █████
 ██    Greetings    ██
  █████         █████
      ███████████

NTX aAF FiCO HNR CiNEFiLE AEN HUMANiSM 0MNiDVD TASTE

      ███████████
  █████         █████
 ██     Details     ██
  █████         █████
      ███████████

Format                           : AVI
Format/Info                      : Audio Video Interleave
File size                        : 700 MiB
Duration                         : 1h 26mn
Overall bit rate                 : 1 137 Kbps
Writing application              : VirtualDubMod 1.5.10.2 (build 2540/release)
Writing library                  : VirtualDubMod build 2540/release

Video
ID                               : 0
Format                           : MPEG-4 Visual
Format profile                   : Advanced Simple@L5
Format settings, BVOP            : Yes
Format settings, QPel            : No
Format settings, GMC             : No warppoints
Format settings, Matrix          : Default (H.263)
Codec ID                         : XVID
Codec ID/Hint                    : XviD
Duration                         : 1h 26mn
Bit rate                         : 988 Kbps
Width                            : 640 pixels
Height                           : 368 pixels
Display aspect ratio             : 16:9
Frame rate                       : 23.976 fps
Color space                      : YUV
Chroma subsampling               : 4:2:0
Bit depth                        : 8 bits
Scan type                        : Progressive
Bits/(Pixel*Frame)               : 0.175
Stream size                      : 609 MiB (87%)
Writing library                  : XviD 1.2.1 (UTC 2008-12-04)

Audio
ID                               : 1
Format                           : MPEG Audio
Format version                   : Version 1
Format profile                   : Layer 3
Mode                             : Joint stereo
Mode extension                   : MS Stereo
Codec ID                         : 55
Codec ID/Hint                    : MP3
Duration                         : 1h 26mn
Bit rate mode                    : Variable
Bit rate                         : 136 Kbps
Minimum bit rate                 : 32.0 Kbps
Channel(s)                       : 2 channels
Sampling rate                    : 48.0 KHz
Stream size                      : 83.8 MiB (12%)
Alignment                        : Aligned on interleaves
Interleave, duration             : 24 ms (0.58 video frame)
Interleave, preload duration     : 409 ms
Writing library                  : LAME3.97
Encoding settings                : -m j -V 2 -q 3 -lowpass 18.6 --vbr-new -b 32


This NFO File was rendered by NFOmation.net


                                                     ÛÛÛÛÛ
                                                   ÛÛÛÛÛÛÛÛÛ
                                                  ÛÛ       ÛÛ
                                                 ÛÛ         Û
                                                 Û          ÛÛ
                                                ÛÛ          ÛÛ
                                                ÛÛ          Û
                                                ÛÛ          ÛÛ
                                                 Û          ÛÛ
                                                 ÛÛ        ÛÛÛ
                                                 Û         ÛÛ
                                                 Û       ÛÛÛ
                                                Û      ÛÛÛÛ
                               ÛÛÛÛÛÛÛÛÛÛÛÛÛÛÛÛÛ      ÛÛ
                             ÛÛÛ            ÛÛ        Û
                           ÛÛ               Û         ÛÛ
                           Û   ÛÛÛÛÛÛÛ     ÛÛ          Û
                           Û   ÛÛÛÛÛÛÛÛÛÛ  Û           ÛÛ   ÛÛÛÛÛ
                           Û   Û       ÛÛÛÛÛ     Û     Û   ÛÛ   ÛÛ
                           Û   Û         ÛÛÛ    ÛÛ     Û   ÛÛ   ÛÛ
                           Û   Û          ÛÛ    ÛÛ     ÛÛ   ÛÛ  ÛÛ
                           Û   Û          ÛÛ    ÛÛ      ÛÛ  ÛÛ  ÛÛ
                           ÛÛ  Û          ÛÛ    ÛÛÛ     ÛÛ  ÛÛ  Û
                           ÛÛ ÛÛ          ÛÛ     ÛÛ      Û  Û  Û
                           ÛÛ ÛÛ          ÛÛ      ÛÛ     ÛÛÛÛ  Û
                            Û ÛÛ          ÛÛ       ÛÛ     ÛÛ  ÛÛ
                            Û ÛÛ          ÛÛ        ÛÛ    ÛÛ  Û
                            Û ÛÛ          ÛÛ        ÛÛ    Û   Û
                            Û  ÛÛÛ        ÛÛ         ÛÛ      ÛÛ
                            Û   ÛÛ        ÛÛ          ÛÛ     Û
                            Û    ÛÛ       ÛÛ         Û ÛÛ   ÛÛ
                 ARTiCHOKE  ÛÛ   ÛÛ       ÛÛ         Û ÛÛ  ÛÛ
                            ÛÛÛÛÛÛ        Û         Û   ÛÛÛÛ
     ÛÛÛÛ   ÛÛÛÛÛ    ÛÛÛÛÛÛ   ÛÛÛÛ ÛÛÛ   ÛÛÛÛ ÛÛÛÛÛÛÛÛÛÛ ÛÛÛÛÛÛÛÛÛ ÛÛÛÛÛÛ
    Û   Û   Û    Û   Û    Û   Û  Û Û Û   Û  Û Û        Û Û       Û Û     Û
   ÛÛ  Û    Û    Û   Û     Û  Û  Û Û Û   Û  Û Û        Û Û      ÛÛ Û     Û
   Û   Û    Û     Û  Û     Û  ÛÛÛÛ Û Û   Û  Û ÛÛ       Û Û      Û  Û      Û
  ÛÛ  Û     Û ÛÛ  ÛÛ Û  Û   Û      Û Û   Û  Û   ÛÛ    ÛÛ Û  ÛÛÛÛ   Û  ÛÛ  Û
  Û   Û     Û ÛÛ   Û Û  ÛÛ  Û ÛÛÛÛ Û  Û  Û  Û   ÛÛÛ ÛÛÛÛ   ÛÛÛÛÛ   Û  ÛÛ   Û
  Û  Û      Û ÛÛ   Û Û  ÛÛ  Û Û  Û Û  ÛÛ Û  Û     Û Û    Û Û       Û  ÛÛ   Û
  Û  ÛÛÛÛÛÛ Û ÛÛ   Û Û  Û   Û Û  Û Û   Û Û  Û     Û Û    Û ÛÛÛÛ    Û  ÛÛ  ÛÛ
  Û       Û Û Û   Û  Û  Û  ÛÛ Û  Û Û   ÛÛÛ  Û     Û Û    Û    Û    Û  Û   Û
  Û       Û Û    ÛÛ  Û     Û  Û  Û Û    ÛÛ  Û     Û Û    Û    Û    Û     ÛÛ
  Û       Û Û    Û   Û    ÛÛ  Û  Û Û     Û  Û     Û Û    Û    Û    Û     Û
  Û       Û Û   ÛÛ   Û    Û   Û  Û Û ÛÛ  Û  Û     Û Û    Û    Û    Û     Û
  ÛÛÛÛÛÛ  Û Û   Û    Û     Û  Û  Û Û ÛÛ     Û     Û Û    Û ÛÛÛÛ    Û     Û
       Û  Û Û  Û     Û     Û  Û  Û Û ÛÛÛ    Û     Û Û    Û Û       Û      Û
    ÛÛÛÛ  Û Û  Û     Û  Û   Û Û  Û Û Û Û    Û     Û Û    Û ÛÛÛÛÛ   Û      Û
   ÛÛÛÛ   Û Û Û      Û  ÛÛ  Û Û  Û Û Û ÛÛ   Û     Û Û    Û  ÛÛÛÛÛ  Û  ÛÛ   Û
  ÛÛ     ÛÛ Û Û      Û Û Û  Û Û ÛÛ Û Û  Û   Û     Û Û    Û      Û  Û  ÛÛÛ  Û
  Û      Û  Û Û      ÛÛÛ ÛÛ Û Û Û  Û Û   Û ÛÛ     ÛÛÛ    Û      ÛÛ Û Û  Û ÛÛ
 ÛÛ     Û   Û Û      ÛÛ   ÛÛÛ ÛÛ   Û Û   Û Û      ÛÛ     Û       Û ÛÛÛ   ÛÛ
 ÛÛÛÛÛÛÛÛ   ÛÛÛ      ÛÛ    Û  ÛÛ   ÛÛÛ    ÛÛ      Û      ÛÛÛÛÛÛÛÛÛ ÛÛ    ÛÛ

      ÛÛÛÛÛÛÛÛÛÛÛÛÛÛÛÛÛÛÛÛÛÛÛÛÛÛÛÛÛÛÛÛ
  ÛÛÛÛÛ                              ÛÛÛÛÛ
 ÛÛ     SPRiNTER proudly presents...     ÛÛ
  ÛÛÛÛÛ                              ÛÛÛÛÛ
      ÛÛÛÛÛÛÛÛÛÛÛÛÛÛÛÛÛÛÛÛÛÛÛÛÛÛÛÛÛÛÛÛ

 Another.Day.in.Paradise.2008.BDRip.XviD-SPRiNTER
 http://www.imdb.com/title/tt1243922/
 Subtitles: English

 Date: 2011.02
 Genre: Documentary

      ÛÛÛÛÛÛÛÛÛÛÛÛÛÛÛÛÛ
  ÛÛÛÛÛ               ÛÛÛÛÛ
 ÛÛ     Release notes     ÛÛ
  ÛÛÛÛÛ               ÛÛÛÛÛ
      ÛÛÛÛÛÛÛÛÛÛÛÛÛÛÛÛÛ

 Enjoy!

      ÛÛÛÛÛÛÛÛÛÛ
  ÛÛÛÛÛ        ÛÛÛÛÛ
 ÛÛ      News      ÛÛ
  ÛÛÛÛÛ        ÛÛÛÛÛ
      ÛÛÛÛÛÛÛÛÛÛ

 We are currently looking for:

 - Suppliers who can provide pre-retail or retail dvds with decent upload!
 - 50Mbit+ dump providers with 1TB+ free space.
 - 100mbit+ .kr/.jp affiliation.

 sprinter@hush.com

      ÛÛÛÛÛÛÛÛÛÛÛ
  ÛÛÛÛÛ         ÛÛÛÛÛ
 ÛÛ    Greetings    ÛÛ
  ÛÛÛÛÛ         ÛÛÛÛÛ
      ÛÛÛÛÛÛÛÛÛÛÛ

NTX aAF FiCO HNR CiNEFiLE AEN HUMANiSM 0MNiDVD TASTE

      ÛÛÛÛÛÛÛÛÛÛÛ
  ÛÛÛÛÛ         ÛÛÛÛÛ
 ÛÛ     Details     ÛÛ
  ÛÛÛÛÛ         ÛÛÛÛÛ
      ÛÛÛÛÛÛÛÛÛÛÛ

Format                           : AVI
Format/Info                      : Audio Video Interleave
File size                        : 700 MiB
Duration                         : 1h 26mn
Overall bit rate                 : 1 137 Kbps
Writing application              : VirtualDubMod 1.5.10.2 (build 2540/release)
Writing library                  : VirtualDubMod build 2540/release

Video
ID                               : 0
Format                           : MPEG-4 Visual
Format profile                   : Advanced Simple@L5
Format settings, BVOP            : Yes
Format settings, QPel            : No
Format settings, GMC             : No warppoints
Format settings, Matrix          : Default (H.263)
Codec ID                         : XVID
Codec ID/Hint                    : XviD
Duration                         : 1h 26mn
Bit rate                         : 988 Kbps
Width                            : 640 pixels
Height                           : 368 pixels
Display aspect ratio             : 16:9
Frame rate                       : 23.976 fps
Color space                      : YUV
Chroma subsampling               : 4:2:0
Bit depth                        : 8 bits
Scan type                        : Progressive
Bits/(Pixel*Frame)               : 0.175
Stream size                      : 609 MiB (87%)
Writing library                  : XviD 1.2.1 (UTC 2008-12-04)

Audio
ID                               : 1
Format                           : MPEG Audio
Format version                   : Version 1
Format profile                   : Layer 3
Mode                             : Joint stereo
Mode extension                   : MS Stereo
Codec ID                         : 55
Codec ID/Hint                    : MP3
Duration                         : 1h 26mn
Bit rate mode                    : Variable
Bit rate                         : 136 Kbps
Minimum bit rate                 : 32.0 Kbps
Channel(s)                       : 2 channels
Sampling rate                    : 48.0 KHz
Stream size                      : 83.8 MiB (12%)
Alignment                        : Aligned on interleaves
Interleave, duration             : 24 ms (0.58 video frame)
Interleave, preload duration     : 409 ms
Writing library                  : LAME3.97
Encoding settings                : -m j -V 2 -q 3 -lowpass 18.6 --vbr-new -b 32


This NFO File was rendered by NFOmation.net


<Mascot>

aa21